アットウィキロゴ
Caldwell 99
BlackY

EXTREME

Level: 10.4
BPM: 142
Notes: 925

1
②①②① |①--②|
⑥⑤⑥⑤ |--③-|
□③□③ |④⑤--|
④□□□ |⑥---|

2
□②②⑤ |①-②-|
⑥④□□ |③④-⑤|
□□③⑤ |-⑥--|
⑥□①□ |⑦⑧⑨⑩|

□⑩□□
□□⑨□
□⑧□□
□□⑦□

3
⑤⑧④④ |①②-③|
□⑤⑥② |-④-⑤|
□⑦①⑥ |-⑥-⑦|
③③⑦□ |--⑧-|

4
④□□④ |①---|
□□□□ |②③-④|
□□③□ |--⑤-|
①②□① |--⑥-|

□□□□
□□□□
□□□□
□>―⑤

□□□□
□□□□
□□□□
□□□⑥

5
□⑥□⑧ |①②-③|
②□④□ |④-⑤⑥|
□⑤□⑦ |-⑦⑧-|
①□③□ |⑨-⑩⑪|

□□⑩□
□□□□
□□⑪□
⑨□□□

6
⑥②□⑧ |①②-③|
□□□④ |④-⑤⑥|
⑤①□⑦ |-⑦⑧-|
□□□③ |⑨⑩⑪⑫|

□⑨□□
□□⑩□
□⑪□□
□□⑫□

7
⑥□⑧□ |①②-③|
②□□④ |④-⑤⑥|
⑤□⑦□ |-⑦⑧-|
①□□③ |⑨-⑩⑪|

□□□⑩
□□□□
□□□⑪
⑨□□□

8
□□□⑤ |①--②|
②□□③ |--③-|
□④④□ |④---|
□①①□ |⑤---|

9
①□□④ |①---|
②□□③ |②---|
③□□② |③---|
④□□① |④---|

10
③②①□ |①---|
④□□□ |②---|
□□□④ |③---|
□①②③ |④---|

11
⑪④⑤⑫ |-①②③|
⑬⑥⑦⑭ |④⑤⑥⑦|
□⑨②□ |-⑧⑨⑩|
⑧①⑩③ |⑪⑫⑬⑭|

12
⑧④⑤⑫ |-①②③|
⑨⑥⑦⑬ |④⑤⑥⑦|
⑩□②⑭ |⑧⑨⑩⑪|
⑪①□③ |⑫⑬⑭⑮|

□□□□
□□□□
□□□□
□□□⑮

13
④⑤⑥⑦ |①---|
⑧③□⑦ |②---|
□②⑨□ |③--④⑤⑥|
□①①□ |⑦-⑧⑨|

14
⑥⑩⑨⑧ |①②③-|
⑫⑬③□ |④⑤-⑥|
①②□⑤ |⑦⑧⑨⑩|
①④⑦⑪ |⑪⑫⑬⑭|

□□□□
□□⑭□
□□□□
□□□□

15
②□⑤④ |①-②-|
□⑥□③ |③-④-|
□②⑤④ |⑤-⑥-|
①③⑤□ |⑦-⑧-|

⑦⑧□□
□□□□
⑦⑧□□
□□□⑦

16
□⑥②□ |①--②|
④④②① |③-④-|
□□□① |⑤⑥⑦⑧|
①③⑤□ |-⑨⑩-|

⑩□□⑩
□□⑨⑦
⑧□□□
□□□□

17
⑪④⑤⑫ |-①②③|
⑬⑥⑦⑭ |④⑤⑥⑦|
□⑨②□ |-⑧⑨⑩|
⑧①⑩③ |⑪⑫⑬⑭|

18
⑪④⑤⑩ |-①②③|
⑨⑥⑦⑫ |④⑤⑥⑦|
⑬⑧②□ |⑧⑨-⑩|
□①□③ |⑪⑫⑬⑭|

□□□□
□□□□
□□□□
□□□⑭

19
□④④□ |①--②|
□①□⑤ |③-④-|
⑥⑥②② |⑤--⑥|
①③⑤⑦ |⑦-⑧-|

□□□□
□⑧⑧□
□□□□
□□□□

20
②□⑤⑩ |①-②③|
①□□⑨ |④-⑤⑥|
□⑥③⑧ |⑦⑧⑨⑩--|
①④□⑦ |⑪-⑫-|

⑪⑪□□
□□□□
□□□□
⑫⑫□□

21
⑤⑥⑦⑧ |①-②③|
□①①④ |④--⑤⑥⑦|
③⑨□□ |⑧-⑨-⑩-|
□□②⑩ |⑪-⑫-⑬-|

□□□□
□□⑪□
⑫□□□
□□⑬□

22
①⑨②⑧ |①-②-|
③⑤⑩④ |③④⑤⑥|
⑦□⑥② |⑦⑧⑨⑩|
⑪□□□ |⑪-⑫-⑬-|

□□□□
□□□□
□⑬□⑫
□⑬□⑫

23
①⑩⑨⑧ |①-②-|
③⑤⑪④ |③④⑤⑥|
⑦⑬⑥⑭ |⑦-⑧⑨⑩-⑪-|
⑫⑬②⑭ |⑫-⑬-⑭-|

24
①□④□ |①--②|
③①④⑥ |③-④-|
⑤□□□ |⑤⑥⑦⑧|
□□②□ |⑨-⑩-|

□⑨□⑨
□⑦□□
□□⑧□
⑨⑩□⑩

25
①⑧⑦⑨ |①-②-|
③□⑥③ |③--④⑤⑥|
⑦②⑤① |⑦-⑧⑨|
⑩□④□ |⑩-⑪-⑫-|

□□□□
□□□□
□⑪□⑫
□⑪□⑫

26
①⑨⑩⑧ |①-②-|
③⑤⑩④ |③④⑤⑥|
⑦□⑥⑫ |⑦⑧⑨⑩|
⑪⑦②□ |⑪⑫⑬⑭|

□□□□
⑬□□□
□⑬□□
□□⑭□

27
①□□□ |①--②|
④①④① |--③-|
②□②④ |④--⑤|
③③□② |--⑥-|

⑤□□⑤
□□□□
□⑤□□
□□⑥⑥

28
□①①□ |①--②|
□③⑥□ |--③-|
□⑤□□ |-④--|
②□□④ |⑤-⑥-|

29
①⑦①③ |①--②|
④⑥⑨□ |--③-|
□⑤⑧③ |-④--|
④②□② |⑤⑥⑦⑧⑨⑩|

□□⑩□
□□□□
□□□□
□□□□

30
①―<□ |①--②|
□□□□ |--③-|
①―<□ |④-⑤-|
□□□□ |⑥-⑦-|

②□□□
□>―②
②□□□
□>―②

∨□□□
③∨□③
□③□□
□□□③

□□□□
④□⑤□
□④∧⑤
□□□∧

□□□□
□□⑥□
□□□⑥
□□□□

□□□□
∨□∨□
|□|□
⑦□⑦□

31
⑤⑩③⑥ |①-②③|
⑨④⑪② |④⑤⑥⑦|
□⑧⑦⑫ |⑧⑨⑩⑪|
①□①□ |⑫⑬⑭⑮|

□□□□
□□□□
⑮□□□
□⑭⑬□

32
①⑧①④ |-①--|
③⑦□□ |②③-④|
□⑥②④ |--⑤-|
⑤□⑤□ |⑥⑦⑧⑨⑩⑪|

□□⑪□
□□⑩□
□□⑨□
□□□□

33
①――< |①--②|
□□□□ |--③-|
①―<② |-④⑤-|
□□□② |--⑥-|

③□□□
□□④□
③③④□
□③□□

□□□□
□□□□
□□□□
⑤―<□

□>―⑥
□□□□
□□□□
⑥□□□

34
□□□□ |①-②③|
□□□□ |--④-|
①①□□ |-⑤⑥-|
□□□□ |--⑦-|

□□□②
③③□□
□>―②
□□□□

⑤⑤□□
□>―④
□□□④
□④④□

□□□□
□□□⑥
□□□□
□>―⑥

□□□□
>―⑦□
□□□□
□□□⑦

35
□⑤⑧□ |①-②③|
□□②□ |④⑤-⑥|
④⑦③⑥ |⑦⑧-⑨|
②①①□ |-⑩⑪-|

□□□□
⑩□□⑪
□□□□
□⑨⑨□

36
①②③④ |---①②③|
□⑩⑦□ |④-⑤-⑥-|
⑧⑤⑪□ |⑦-⑧-⑨-|
⑫□⑥⑨ |⑩-⑪-⑫-|

37
□①①□ |①--②|
④④□③ |--③-|
□□⑥□ |④--⑤|
□②⑤□ |-⑥--|

38
③□①① |①--②|
□□⑤④ |--③-|
⑥□□② |--④⑤|
□□⑦□ |-⑥-⑦|

39
□①①□ |①--②|
□⑤⑥④ |-③-④|
□□③□ |⑤⑥⑦⑧|
□□□② |⑨⑩-⑪|

□⑦⑧⑪ 
⑩□□□
⑨□□□
□□□□

40
①□□□ |-①②-|
⑥②③⑥ |③-④-⑤-|
□④⑦□ |⑥--⑦|
□⑧⑤□ |--⑧-|

41
④④①① |①--②|
□□⑥③ |--③-|
⑦②□⑤ |④-⑤⑥|
□□□□ |--⑦-|

42
□□□□ |①--②|
⑤□□③ |--③-|
④②□□ |--④-|
□□①① |-⑤--|

43
①①□□ |①---|
□□□□ |----|
□□□□ |----|
□②②□ |--②-|

44
□□①□ |①--②|
□②□① |--③-|
②□□③ |---④⑤⑥|
□□□③ |⑦-⑧⑨|

□□④□
□□⑤⑨
□□⑥□
⑧□⑦□

45
①②⑪④ |①②-③|
④⑥⑨□ |④-⑤⑥|
⑦①⑫③ |⑦⑧⑨-|
⑩⑤⑧⑩ |⑩-⑪⑫|

46
①②⑨④ |①②-③|
④⑥□□ |④-⑤⑥|
⑦①⑧③ |⑦⑧⑨-|
□⑤□□ |⑩⑪⑫⑬|

□⑩□□
□□⑪□
□⑫□□
⑩□⑬□

47
①□④⑨ |①②-③|
④⑥□② |④-⑤⑥|
⑦□③⑧ |⑦⑧⑨-|
□⑤□① |⑩-⑪⑫|

□⑪□□
□□□□
□⑫□□
⑩□□⑩

48
①□②□ |①②-③|
④④□⑥ |④-⑤⑥|
⑦⑧①□ |⑦⑧⑨⑩|
□③□⑤ |⑪⑫⑬⑭|

⑭⑬⑫⑪
□□□□
□□⑨⑩
□□□□

49
□□□□ |①--②|
①――< |--③---|
□□□□ |④--⑤|
□□□□ |--⑥-⑦-|

>――④
②□①□
□□□③
□②□③

□④□⑤
□□□□
⑦□⑤□
⑥□□□

50
□□□□ |①--②|
①――< |③--④|
□□□□ |⑤--⑥|
□□□□ |⑦--⑧|

□□□□
②□①□
□□□□
□②□□

□□□□
>――③
□□□□
□□□□

⑤――<
□③□④
□□□□
□□④□

⑥□⑤□
□□□□
□⑥□□
□□□□

>――⑦
□□□□
□□□□
□□□□

□⑦□⑧
□□□□
□□⑧□
□□□□

51
□□□□ |①-②-|
①――< |③-④-|
□□□④ |⑤⑥⑦⑧|
□①②③ |⑨⑩⑪⑫|

□⑧⑦⑥
□⑨⑫⑤
□⑩⑪□
□□□□

52
⑦⑧⑨⑩ |①-②③|
①⑬⑬④ |④-⑤⑥|
⑤⑪□⑥ |⑦-⑧-⑨-⑩--⑪--|
①③⑫② |⑫⑬--|

53
□□□⑥ |①--②|
③□⑤① |③-④-|
⑤□②⑤ |⑤--⑥|
①①□④ |⑦-⑧-|

□□□□
□□□□
□□□□
⑦□⑧□

54
①□⑧⑤ |①-②③|
④②□□ |④⑤-⑥|
⑦⑨③⑥ |⑦⑧⑨⑩|
⑪⑪⑫⑩ |⑪⑫⑬⑭|

□□□□
□⑬□⑭
□□□□
□□□□

55
①①□② |①--②|
③⑥□□ |③-④-|
⑤□①⑤ |⑤--⑥|
⑦□⑤④ |⑦-⑧-|

□⑧⑧□
□□□□
□□□□
□□□□

56
①⑩□③ |①-②③|
④⑧⑨⑪ |④⑤⑥⑦⑧⑨|
⑩⑥⑦② |⑩--⑪|
⑫④⑤⑬ |⑫-⑬-|

57
①⑨①① |①-②③|
④②⑥⑧ |④⑤-⑥|
⑦□③⑤ |⑦⑧⑨⑩|
□④⑩□ |⑪⑫⑬⑭|

□□□⑭
□⑪□□
□□□□
⑪⑬□⑫

58
①⑤②□ |①②③④|
⑤⑨□⑧ |⑤⑥⑦⑧|
⑨③④⑨ |⑨--⑩|
⑦□⑥□ |-⑪⑫⑬|

⑩□⑪⑩
⑫□⑩□
□□□□
□⑫□⑬

59
□□⑩□ |①--②|
⑧⑥④② |③④⑤⑥|
⑨⑦⑤③ |⑦⑧⑨⑩|
①⑪①□ |⑪---|

60
①④④□ |①--②|
③⑥②① |③-④-|
⑤②⑤⑥ |⑤--⑥|
□⑥①⑤ |--⑦-|

⑦□□⑦
□□□□
□⑦□□
□□□□

61
□①①③ |----|
①□□① |①---|
②⑤⑤③ |②--③|
④②□② |④-⑤-|

62
①④□□ |①-②③|
④⑧□⑤ |④⑤-⑥|
⑦⑦⑨□ |⑦-⑧⑨|
□②③⑥ |⑩⑪⑫⑬|

□⑫□□
□□⑬□
□□□⑪
⑩⑩□□

63
①□①① |①---|
②□□② |②---|
③□□□ |③--④|
□③③② |⑤-⑥-|

□④□④
□□□□
□□⑥⑥
⑤□□□

64
①□②⑤ |①-②-|
③⑧⑧② |③④-⑤|
⑥⑥⑩⑩ |⑥⑦-⑧|
⑨③⑦④ |-⑨⑩⑪|

□□□□
⑪□□□
□□□□
□□□□

65
①①⑧⑧ |①-②③|
⑩□⑦③ |④⑤⑥⑦|
④⑥⑪⑨ |⑧⑨⑩⑪|
⑧②⑤① |⑫⑬⑭⑮|

□⑫□□
□□□⑮
□□□□
□⑭□⑬

66
⑧⑧□④ |①-②③|
⑦③②□ |④⑤⑥⑦|
①①⑥⑧ |⑧⑨-⑩|
⑤□①⑨ |-⑪⑫⑬|

□□□⑬
□□⑪⑩
⑩⑩□□
□⑫⑫□

67
③④②□ |①--②|
②①④③ |--③-|
④③①② |-④--|
②□④③ |⑤---|

>――⑤
□⑤□□
□□⑤□
□⑤□□

68
□□□□ |--①-|
④□□□ |----|
□□□③ |----|
①②□□ |-②③④|

69
⑤□②① |①②-③|
□□□④ |-④-⑤|
③①□□ |--⑥-|
□□□⑤ |-⑦--|

□□□□
□⑦⑥□
□⑥⑦□
□□□□

70
□②①□ |①--②|
②□□① |----|
①□□② |----|
□①②□ |----|
最終更新:2024年08月15日 18:11