アットウィキロゴ
1
□□③□ |----|
□□□③ |----|
②□□① |--①-|
□②①□ |②-③-|

2
③①□② |①--②|
①③①□ |----|
□①□□ |③-④-|
□□□□ |⑤-⑥-|

□□□⑥
□□⑥□
□④⑤□
④□□⑤

3
□①□□ |--①-|
②□④① |----|
①③□□ |--②-|
□②①□ |③④-⑤|

□⑤⑤□
□□□□
⑤□□⑤
□□□□

4
□□□② |--①-|
□□③□ |----|
□□②□ |②-③-|
①□□③ |④-⑤-|

⑤□□□
□④□□
□⑤□□
④□□□

5
□①□□ |--①-|
①□□⑤ |----|
□③④① |----|
②□①□ |②③④⑤|

6
①③①③ |①---|
□□□□ |②---|
①□□③ |③---|
④□□② |④---|

7
①③①③ |①---|
④①④□ |②---|
①③①③ |③---|
④□④② |④---|

8
③□③□ |①---|
□②□① |②---|
③□④□ |③---|
□①□① |④---|

9
□⑧⑧□ |①②-③|
①□⑩② |④-⑤⑥|
③⑨□④ |--⑦-|
⑤⑦⑦⑥ |⑧-⑨⑩|

10
□□□□ |----|
⑤□⑧④ |①②③④|
⑥□③⑦ |-⑤⑥-|
①②□□ |⑦⑧--|

11
①③⑤□ |①②-③|
⑤⑥□③ |-④-⑤|
④②⑦⑥ |-⑥-⑦|
⑦□④□ |-⑧-⑨|

⑧□□⑧
□□□□
□□□□
□⑨⑨□

12
□□□□ |----|
③⑦①④ |-①②③|
⑥②□⑤ |-④⑤-|
□□□□ |⑥⑦--|

13
□□⑤① |①②-③|
⑤□④⑦ |-④-⑤|
⑥③②⑥ |--⑥-|
□④⑧③ |⑦⑧-⑨|

□□□□
□⑨⑨□
□□□□
□□□□

14
□□□□ |----|
⑤□⑧④ |①②③④|
⑥□③⑦ |-⑤⑥-|
①②□□ |⑦⑧--|

15
①③⑤□ |①②-③|
⑤⑥□③ |-④-⑤|
④②⑦⑥ |-⑥-⑦|
⑦□④□ |-⑧-⑨|

⑧□□⑧
□□□□
□□□□
□⑨⑨□

16
□□□□ |----|
③⑦①④ |-①②③|
⑥②□⑤ |-④⑤-|
□□□□ |⑥⑦--|

17
⑤□⑤① |①②-③|
④□④③ |-④-⑤|
⑤③②□ |--⑥-|
□④□③ |⑦⑧-⑨|

□⑨□⑥
⑨⑦□□
□□⑧⑨
⑥□⑨□

18
①□②② |----|
□③□□ |①---|
①□□□ |--②-|
□□④□ |③④--|

19
①②⑦⑦ |①-②③|
□□①□ |-④⑤-|
①④③□ |--⑥-|
⑥⑧□⑤ |⑦-⑧⑨|

□□□□
□□⑨□
□□□□
□□□□

20
①①③□ |①---|
□⑤⑤③ |②---|
④□□□ |③-④-|
□④②② |--⑤-|

21
②⑤④① |①-②-|
□□□□ |--③-|
□③③□ |--④-|
②⑤④① |⑤-⑥-|

⑥□□□
□□□□
□□□□
⑥□□□

22
⑤③⑥③ |①--②|
②①①② |----|
②①①② |③-④-|
④⑤④⑥ |⑤-⑥-|

23
□□□□ |--①-|
□①①□ |②---|
①□□① |③-④-|
②④④③ |⑤⑥-⑦|

⑦□□⑦
□⑦⑦⑥
⑤□□□
□□□□

24
□③②□ |--①-|
□□□③ |②---|
④①①□ |③-④-|
①□④① |⑤-⑥-|

⑤□□⑥
□□□□
□□□□
⑤□□⑥

25
⑤②③⑥ |--①-|
①□□① |②---|
□①①④ |③-④-|
⑤④□⑥ |⑤-⑥-|

26
□②③□ |①--②|
④①①② |----|
②①①③ |③-④-|
□④②□ |⑤-⑥-|

□□□□
□⑤⑥□
□⑤⑥□
□□□□

27
□①□① |--①-|
③□□② |②---|
④□□④ |③-④-|
①□①□ |⑤⑥-⑦|

⑦⑥□⑦
□□□□
□⑦⑦□
□□⑤□

28
□□③⑤ |--①-|
□①①③ |②---|
④□□② |③-④-|
①④⑤① |⑤-⑥-|

□⑥□□
□□□□
□□□□
⑥□□□

29
①④③□ |--①-|
②□①□ |②---|
□①□□ |③-④-|
□④③① |⑤⑥--|

□□□□
□□⑥□
□⑤□□
□□□□

30
□□□③ |①-②-|
⑤②□⑥ |③---|
①④④① |④-⑤-|
□□⑥③ |⑥-⑦-|

□⑦□□
□□□□
⑦□□□
□□□□

31
②⑤④① |①-②-|
□③③□ |--③-|
□③③□ |--④-|
②⑤④① |⑤-⑥-|

⑥□□□
□□□□
□□□□
⑥□□□

32
⑤□⑥⑤ |①--②|
□②②□ |----|
□□④① |③④-⑤|
□③□□ |--⑥-|

33
□③□□ |①--②|
②②□③ |----|
①①□④ |③-④-|
□④□□ |⑤-⑥-|

□□⑥□
⑥□□□
⑤□□□
□□⑤□

34
②⑥□② |--①-|
□③□□ |②---|
□①①④ |③④⑤-|
□⑤⑦□ |⑥⑦--|

35
⑩⑨⑦⑪ |①②③④|
②④⑧⑥ |⑤⑥⑦⑧|
③□⑤□ |⑨⑩-⑪|
⑫□□① |-⑫--|

36
□②②④ |①--②|
②□③⑤ |----|
□□⑥① |-③④⑤|
□①①□ |⑥⑦⑧⑨|

□□□□
□□□□
□⑧□□
⑨□⑦□

37
□③□□ |①②③-|
□②□□ |----|
①□⑤□ |----|
□□□④ |--④⑤|

38
⑤□⑦③ |①②-③|
②⑤③⑦ |-④-⑤|
⑥①⑧④ |-⑥-⑦|
□⑥④⑧ |-⑧--|

39
⑨⑥⑦③ |①②-③|
③⑪②⑨ |-④⑤⑥|
⑧①⑩③ |⑦-⑧-|
③④⑤⑧ |⑨-⑩⑪|

40
□⑤②③ |-①-②|
①⑦④⑩ |-③④⑤|
⑥⑧□② |-⑥⑦⑧|
□①⑨□ |⑨⑩⑪⑫|

□□⑫□
□□□□
□□□⑪
□□□□

41
③⑦□③ |①②-③|
①□④□ |-④⑤⑥|
□□⑤□ |-⑦⑧⑨|
②□□⑥ |⑩⑪⑫⑬|

□□⑩□
⑧⑨□⑪
□⑬□⑫
□⑬□□

42
①④⑦① |-①-②|
⑨⑫□⑩ |-③④⑤|
③□⑤⑥ |-⑥⑦⑧|
②⑧⑪② |⑨⑩⑪⑫|

43
□⑤⑤① |①②-③|
□⑥④□ |-④-⑤|
□④②□ |-⑥⑦-|
③□⑦③ |⑧⑨-⑩|

□□□⑩
⑩□□□
□□⑧⑩
⑩⑨□□

44
②□⑥⑥ |--①-|
□⑦①③ |②③-④|
②⑤□⑨ |⑤-⑥-|
□□⑧④ |⑦⑧-⑨|

45
①②⑨⑨ |①-②③|
□⑥⑪□ |-④⑤-|
①④③⑦ |⑥⑦⑧-|
⑧⑩□⑤ |⑨-⑩⑪|

46
①①⑥□ |①-②-|
④□□⑥ |③④-⑤|
⑦②□□ |⑥-⑦-|
⑤⑦③③ |⑧⑨⑩-|

□⑧□□
□⑩⑩□
□□□⑨
□□□□

47
②⑧⑦① |①-②-|
⑤□□⑥ |③④⑤-|
⑤④③⑥ |⑥-⑦-|
②⑧⑦① |⑧-⑨-|

⑨□□□
□□□□
□□□□
⑨□□□

48
⑧⑥③⑥ |①--②|
②①①② |③④-⑤|
④①①⑤ |⑥-⑦-|
⑦⑧⑦□ |⑧-⑨-|

□□⑨□
□□□□
□□□□
□□□⑨

49
□④□② |--①-|
□①①□ |②③-④|
①□□① |⑤-⑥-|
③⑥⑥⑤ |⑦⑧-⑨|

⑨□□⑨
□⑨⑨⑧
⑦□□□
□□□□

50
□⑤□□ |--①-|
②□□⑤ |②③-④|
⑥□□③ |⑤-⑥-|
①④⑥① |⑦-⑧-|

⑦□□⑧
□□□□
□□□□
⑦□□⑧

51
⑦②⑤⑧ |--①-|
①□□① |②③-④|
④①①⑥ |⑤-⑥-|
⑦⑥③⑧ |⑦-⑧-|

52
□③⑥□ |①--②|
⑦①①② |③④-⑤|
②①①⑥ |⑥-⑦-|
⑤⑦④□ |⑧-⑨-|

□□□□
□⑧⑨□
□⑧⑨□
□□□□

53
□①□① |--①-|
⑤□□② |②③-④|
⑥□□⑥ |⑤-⑥-|
①③①④ |⑦⑧-⑨|

⑨⑧□⑨
□□□□
□⑨⑨□
□□⑦□

54
□□⑤⑦ |--①-|
④①①⑤ |②③-④|
⑥□□□ |⑤-⑥-|
②⑥⑦③ |⑦-⑧-|

□⑧□□
□□□□
□□□□
⑧□□□

55
①⑥⑤□ |--①-|
②④①③ |②③④-|
□①□□ |⑤-⑥-|
□⑥⑤① |⑦⑧⑨-|

⑨□□□
□□⑧□
□⑦□□
□□□□

56
□⑧⑦③ |①-②-|
⑥②□□ |③-④-|
①⑤⑤① |⑤-⑥-|
④⑧⑦③ |⑦-⑧-|

57
②⑧⑦① |①-②-|
⑤□□⑥ |③④⑤-|
⑤④③⑥ |⑥-⑦-|
②⑧⑦① |⑧-⑨-|

⑨□□□
□□□□
□□□□
⑨□□□

58
□□□□ |----|
②□□② |②---|
②□□② |----|
□□□□ |----|
最終更新:2024年09月08日 18:58