アットウィキロゴ
BPM:170
1
□⑦⑤□ |①-②-|
④③□① |③-④-|
⑧□②⑥ |⑤-⑥-|
□□□□ |⑦-⑧-|
2
□□□□ |①-②-|
④□①□ |③-④-|
□③□□ |⑤-⑥-|
□②□□ |⑦-⑧-|

□□□□
□□□□
⑦□□⑤
□⑧⑥□
3
□⑦⑤□ |①-②-|
④③□① |③-④-|
⑧□②⑥ |⑤-⑥-|
□□□□ |⑦-⑧-|
4
□□⑤□ |①-②-|
④□①□ |③-④-|
⑥③□□ |⑤-⑥-|
⑧②⑦□ |⑦-⑧-|
5
⑦⑦⑤⑤ |①-②-|
④③①① |③-④-|
⑧③②⑥ |⑤-⑥-|
□□□□ |⑦-⑧-|
6
□□□□ |①-②-|
④③①① |③-④-|
□③□□ |⑤-⑥-|
□②□□ |⑦-⑧-|

□□□□
□□□□
⑦□□⑤
⑦⑧⑥⑤
7
⑦⑦⑤⑤ |①-②-|
④③①① |③-④-|
⑧③②⑥ |⑤-⑥-|
□□□□ |⑦-⑧-|
8
⑤⑤⑤⑤ |①-②-|
④③①① |③-④-|
□③□□ |⑤---|
□②□⑥ |--⑥-|
9
□□③□ |①-②-|
□□□① |--③-|
□□□② |----|
□④□□ |④---|
10
□③□□ |①-②-|
①□□□ |--③-|
②□□□ |----|
□□④□ |④---|
11
□□③□ |①-②-|
□⑤□① |--③-|
□□□② |----|
□④□□ |④-⑤-|
12
□③□□ |①---|
①□□□ |②-③-|
□□②□ |----|
□□□④ |--④-|
13
□□③□ |①-②-|
□□□① |--③-|
□□□② |----|
□④□□ |④---|
14
□③□□ |①-②-|
①□⑤□ |--③-|
②□□□ |----|
□□④□ |④-⑤-|
15
□□③□ |①---|
□⑤□① |②-③-|
□②□□ |----|
□④□□ |④-⑤-|
16
□③□□ |①---|
①□□□ |②-③-|
□□②□ |----|
□□□④ |--④-|
17
③□④⑤ |①-②-|
□□⑤① |③-④-|
□③□② |----|
□⑤□□ |⑤---|
18
⑤④③□ |①-②-|
①⑤□□ |③-④-|
②□□③ |----|
□□⑤□ |⑤---|
19
□③④⑤ |①-②-|
□⑥⑤① |③-④-|
③□③② |----|
□⑤□□ |⑤-⑥-|
20
④③②□ |①---|
①④□□ |②-③-|
□②□② |----|
□□④□ |④---|
21
□③④⑤ |①-②-|
□□⑤① |③-④-|
③□□② |----|
□⑤□□ |⑤---|
22
⑤④③□ |①-②-|
①⑤⑥□ |③-④-|
②□□③ |----|
□□⑤□ |⑤-⑥-|
23
□②③④ |①---|
□⑤④① |②-③-|
②□②□ |----|
□④□□ |④-⑤-|
24
□③②□ |①---|
①⑥□④ |②-③-|
⑦②⑤② |④-⑤-|
□□□□ |⑥-⑦-|
25
⑤④①⑤ |①-②-|
①⑤⑤④ |③-④-|
□④□① |----|
□②③□ |⑤---|
26
□⑤②□ |①---|
①□□⑤ |②-③-|
⑤⑥④① |--④-|
③①□③ |⑤-⑥-|
27
④□①④ |①-②-|
①□□□ |③-④-|
□□④① |----|
□②③□ |⑤-⑥-|

□□□□
□⑤□□
⑥□□⑤
⑤□□□
28
⑥①①⑥ |①-②-|
④⑦②④ |③-④-|
□③⑤□ |--⑤-|
□□④□ |⑥-⑦-|
29
⑤④①⑤ |①-②-|
□⑤⑤④ |③-④-|
①④□① |----|
□②③□ |⑤---|
30
⑥□①⑥ |①-②-|
①□□□ |③-④-|
□②⑤① |--⑤-|
④⑦③④ |⑥-⑦-|
31
□□①□ |①-②-|
①⑧③□ |③-④-|
⑥②⑦① |⑤-⑥-|
④□⑤⑤ |⑦-⑧-|
32
①⑥⑤① |①-②-|
⑦□□④ |③-④-|
⑧②□□ |⑤-⑥-|
□□□③ |⑦-⑧-|
33
①□□① |①-②-|
□④④□ |③-④-|
□□①③ |----|
□②□□ |⑤---|

⑤□□⑤
□□□□
□□□□
□□□□
34
□□②□ |①---|
□□□② |②-③-|
③①①□ |--④-|
□③□□ |⑤-⑥-|

□□□□
□⑤⑤□
□⑥□□
□□□④
35
①④④① |①-②-|
□□□③ |③-④-|
②□⑥□ |----|
□⑤⑤□ |⑤-⑥-|
36
①⑤⑤□ |①-②-|
①□③□ |③-④-|
⑥②□④ |--⑤-|
□□□④ |--⑥-|
37
①□□① |①-②-|
□④④□ |③-④-|
□□①③ |----|
⑤②□⑤ |⑤---|
38
⑥□①① |①-②-|
□②□⑥ |③-④-|
④⑤③□ |--⑤-|
□④⑦□ |⑥-⑦-|
39
□①①① |①-②-|
②□□□ |③-④-|
□□③□ |⑤-⑥-|
□④□□ |⑦-⑧-|

□⑧□□
□⑤⑤⑤
⑥□□⑦
□□□□
40
□□□□ |①---|
□□□③ |②---|
□①①□ |③---|
②□□④ |④---|
41
①①⑤⑤ |①-②-|
②□□⑥ |③-④-|
③□□⑦ |⑤-⑥-|
④□□⑧ |⑦-⑧-|
42
①①⑤⑤ |①-②-|
□②⑥□ |③-④-|
□③⑦□ |⑤-⑥-|
□④⑧□ |⑦-⑧-|
43
①⑨⑬⑤ |①②③④|
②⑩⑭⑥ |⑤⑥⑦⑧|
③⑪⑮⑦ |⑨⑩⑪⑫|
④⑫⑯⑧ |⑬⑭⑮⑯|
44
①□□② |①②③④|
⑤□□⑥ |⑤⑥⑦⑧|
③□□④ |⑨⑩⑪⑫|
⑦□□⑧ |⑬---|

⑬⑨⑬□
□□⑩□
□⑪□□
□□⑫□
45
□⑧□① |①-②-|
□③⑦⑧ |③-④-|
⑧⑥②□ |⑤-⑥-|
④□⑧⑤ |⑦-⑧-|
46
□□④② |--①-|
④□□□ |②-③-|
□③①④ |④---|
□④⑤□ |--⑤-|
47
①①□③ |①-②-|
□□□□ |③-④-|
□②□④ |⑤-⑥-|
□□□□ |⑦-⑧-|

□⑦□□
□□⑥□
⑧□⑧□
⑤⑧□⑧
48
④□④③ |--①-|
□⑤□⑤ |②-③-|
⑥②⑥□ |④-⑤-|
□□①□ |⑥---|
49
⑧⑤⑧⑦ |①-②-|
①⑧③⑧ |③-④-|
□□□□ |⑤-⑥-|
④②⑥① |⑦-⑧-|
50
□□□□ |--①-|
□□□□ |②-③-|
①□□④ |④---|
⑤②③□ |--⑤-|
51
②□①③ |①-②-|
□□①□ |③-④-|
□④④⑥ |----|
⑤□□□ |⑤-⑥-|
52
□③②③ |①-②-|
⑤①⑤□ |③-④-|
□④④□ |--⑤-|
□⑥⑥□ |⑥---|
53
□⑧□① |①-②-|
□③⑦⑧ |③-④-|
⑧⑥②□ |⑤-⑥-|
④□⑧⑤ |⑦-⑧-|
54
□□④② |--①-|
④□□□ |②-③-|
□③①④ |④---|
□④⑤□ |--⑤-|
55
①①□③ |①-②-|
□□□□ |③-④-|
□②□④ |⑤-⑥-|
□□□□ |⑦-⑧-|

□⑦□□
□□⑥□
⑧□⑧□
⑤⑧□⑧
56
④□④③ |--①-|
□⑤□⑤ |②-③-|
⑥②⑥□ |④-⑤-|
□□①□ |⑥---|
57
⑧□⑧⑦ |①-②-|
③⑧③⑧ |③-④-|
⑥①□① |⑤-⑥-|
□④②⑤ |⑦-⑧-|
58
□□□□ |--①-|
□□□□ |②-③-|
④□□① |④---|
□③②⑤ |--⑤-|
59
③①□② |①-②-|
□①□□ |③-④-|
□④④□ |----|
⑤□□⑥ |⑤-⑥-|
60
□③③□ |①-②-|
①□□② |③-④-|
□④④□ |----|
□①②□ |----|
61
□②□② |①---|
①□②□ |--②-|
①□□□ |----|
①①□□ |③---|

□□③□
③□□□
□□□③
□③□□
62
①②□② |①---|
□□□① |----|
①□②□ |②---|
□③□① |--③-|
63
④□③□ |①-②-|
□□□□ |③-④-|
②□□① |⑤-⑥-|
□□□□ |⑦-⑧-|

□□□□
□⑤□□
□⑥□⑧
□□⑦□
64
④②□□ |--①-|
□□⑤③ |②-③-|
①⑥□□ |④-⑤-|
□□□□ |⑥---|
65
□②□② |①---|
①□②□ |--②-|
①□□□ |----|
①①□□ |③---|

□□③□
③□□□
□□□③
□③□□
66
①②□② |①---|
□□□① |----|
①□②□ |②---|
□③□① |--③-|
67
□□③□ |①-②-|
□□□□ |③---|
②□□① |④-⑤-|
□□□□ |⑥-⑦-|

□□□□
□④□□
□⑤□⑦
□□⑥□
68
⑤③□④ |--①-|
□⑤④② |②-③-|
①□□⑥ |④-⑤-|
□□⑥□ |⑥---|
69
□④□④ |①-②-|
①□④② |③-④-|
①③□□ |⑤-⑥-|
①①□□ |⑦-⑧-|

□□⑦□
⑦⑤□□
□□⑧⑦
□⑦⑥□
70
①□□□ |①-②-|
□□③① |③-④-|
①④□□ |⑤-⑥-|
②□□① |⑦-⑧-|

□⑤□⑤
⑥□□□
□□⑦□
⑧⑧□□
71
□③③□ |①-②-|
□□□□ |③-④-|
②□□① |⑤-⑥-|
□□①④ |⑦-⑧-|

⑧□□⑤
⑤□□□
□⑥□⑧
□□⑦□
72
⑥③□⑤ |①-②-|
□⑥⑤□ |③-④-|
②□①⑦ |⑤-⑥-|
□□⑦④ |⑦---|
73
□④□④ |①-②-|
①□④② |③-④-|
①③□□ |⑤-⑥-|
①①□□ |⑦-⑧-|

□□⑦□
⑦⑤□□
□□⑧⑦
□⑦⑥□
74
①⑤□⑤ |①-②-|
⑥□③① |③-④-|
①④⑦□ |⑤-⑥-|
②⑧□① |⑦-⑧-|
75
①□□④ |①-②-|
④②□① |③-④-|
□□□□ |⑤-⑥-|
□□③□ |⑦-⑧-|

⑦□□□
□□⑤⑦
□⑧□□
⑥□□□
76
⑦①③⑦ |①-②-|
⑤③□□ |③-④-|
②□④⑤ |⑤-⑥-|
□⑥□① |⑦---|
77
⑦⑦⑤⑤ |①-②-|
④③①① |③-④-|
⑧③②⑥ |⑤-⑥-|
□□□□ |⑦-⑧-|
78
□□□□ |①-②-|
④③①① |③-④-|
□③□□ |⑤-⑥-|
□②□□ |⑦-⑧-|

□□□□
□□□□
⑦□□⑤
⑦⑧⑥⑤
79
⑦⑦⑤⑤ |①-②-|
④③①① |③-④-|
⑧③②⑥ |⑤-⑥-|
□□□□ |⑦-⑧-|
80
⑤⑤⑤⑤ |①-②-|
④③①① |③-④-|
□③□□ |⑤---|
⑥②□⑥ |⑥---|
最終更新:2024年10月03日 16:03