アットウィキロゴ
Devil’s Rule / BEMANI Sound Team "Yvya”
BPM:220
Notes:909

1
③□⑫□ |①-②-③-|
②⑦⑪④ |④-⑤-⑥-|
①⑧⑩⑤ |⑦-⑧-⑨-|
□⑨□⑥ |⑩-⑪-⑫-|

2
□⑦□④ |①-②-③-|
③⑧⑫⑤ |④-⑤-⑥-|
②⑨⑪⑥ |⑦-⑧-⑨-|
①□⑩□ |⑩-⑪-⑫-|

3
②□□□ |①---②-|
□□□□ |------|
□□□□ |------|
□①□② |------|

4
③④⑤⑥ |①-----|
②□□② |②-----|
①⑦⑦① |③-④-⑤-|
□□□□ |⑥---⑦-|

5
□□□□ |----①-|
□⑥□□ |②---③-|
②□□④ |④---⑤-|
⑤①③⑦ |⑥---⑦-|

6
⑦②④□ |①---②-|
⑥□①⑦ |③---④-|
□③⑤□ |⑤---⑥-|
□□□⑦ |----⑦-|

7
□①②□ |----①-|
□②①□ |----②-|
④□□□ |----③-|
③②①⑤ |④---⑤-|

8
③□□⑤ |①---②-|
□⑦□□ |③---④-|
□②④① |⑤---⑥-|
⑧⑥□⑧ |⑦---⑧-|

9
□□□⑥ |----①-|
④□⑤□ |②---③-|
□③□② |④---⑤-|
□⑦①□ |⑥---⑦-|

10
③④①⑧ |①---②-|
⑧□□① |③---④-|
③⑦⑤⑥ |⑤---⑥-|
⑧□②⑤ |⑦---⑧-|

11
④②①□ |----①-|
□①②□ |----②-|
③□□□ |----③-|
□①②⑤ |④---⑤-|

12
⑥③□① |①---②-|
③②④□ |----③-|
□□②③ |----④-|
①⑤③⑥ |⑤---⑥-|

13
□□⑥□ |----①-|
④□□② |②---③-|
⑦③①⑤ |④---⑤-|
□□□□ |⑥---⑦-|

14
⑦①□⑥ |①---②-|
□④□③ |③---④-|
⑦□□□ |⑤---⑥-|
⑤□②⑦ |----⑦-|

15
□①②□ |----①-|
□□□④ |----②-|
⑤①②③ |----③-|
□②①□ |④---⑤-|

16
⑧⑦⑥⑤ |①---②-|
①□③⑨ |③---④-|
□□□□ |⑤-⑥-⑦-|
④□⑨② |⑧---⑨-|

17
□□□□ |----①-|
⑥②④□ |②---③-|
①□□③ |④---⑤-|
⑤□□⑦ |⑥---⑦-|

18
①②□⑧ |①---②-|
□⑥□③ |③---④-|
⑤①④⑦ |⑤---⑥-|
⑧⑤③□ |⑦---⑧-|

19
②□□□ |----①-|
①□□□ |②---③-|
④⑤⑥⑦ |④-⑤-⑥-|
⑧□③⑧ |⑦---⑧-|

20
□④①⑦ |------|
□②⑤□ |①-②-③-|
□□□⑦ |④-⑤-⑥-|
□⑥③□ |⑦-----|

21
④□④□ |①---②-|
□④□⑥ |----③-|
②⑤□□ |④-----|
□□③① |⑤---⑥-|

22
□②□② |----①-|
③④②□ |②-----|
⑤⑥□□ |③-④-⑤-|
⑦①□□ |⑥-⑦---|

23
□③□③ |①-----|
⑤□③□ |②-③---|
□□①□ |--④---|
□②□④ |⑤-----|

24
②□②□ |①-②---|
□②④③ |--③-④-|
⑧⑦⑥⑤ |⑤-⑥-⑦-|
⑩⑨①□ |⑧-⑨-⑩-|

25
④□④□ |①---②-|
②④□□ |----③-|
□⑤□⑥ |④-----|
□□③① |⑤---⑥-|

26
□②□② |----①-|
⑦⑧②□ |②-----|
⑤⑥□□ |③-④-⑤-|
③④□① |⑥-⑦-⑧-|

27
①④□④ |①---②-|
□□④② |----③-|
⑤□⑤□ |④-----|
□⑤□③ |⑤-----|

28
④□①□ |①---②-|
①②⑤④ |--③---|
□④□① |④---⑤-|
□⑥③□ |--⑥---|

29
③□□② |①-----|
□□□□ |②-----|
①□□① |------|
①□□① |③-----|

30
②□□① |------|
□□□□ |①-----|
□□□□ |------|
□□□□ |②-----|

31
②□□① |------|
□□□□ |①-----|
□□③□ |------|
□□□□ |②---③-|

32
□□□② |①-----|
⑤⑥⑦□ |②---③-|
□③□□ |④-----|
□①④□ |⑤-⑥-⑦-|

33
□⑤②④ |①-----|
□□□① |②---③-|
□□⑥□ |④---⑤-|
③⑦□□ |⑥---⑦-|

34
□□□⑤ |①---②-|
②□□③ |③---④-|
⑥④□□ |⑤---⑥-|
⑧□⑦① |⑦---⑧-|

35
□②①□ |①-②-③-|
⑧④③⑦ |④-⑤-⑥-|
⑩⑥⑤⑨ |⑦-⑧-⑨-|
⑫□□⑪ |⑩-⑪-⑫-|

36
④②⑤① |①-②-③-|
□⑩⑨□ |④-⑤-⑥-|
□⑧⑦□ |⑦-⑧-⑨-|
□⑥③□ |⑩-----|

37
□□③⑤ |①-----|
②⑤□② |②-----|
④□□□ |③---④-|
①□□① |----⑤-|

38
③⑥□□ |----①-|
□□③□ |②---③-|
□①⑤□ |----④-|
□④②□ |⑤---⑥-|

39
④□□④ |------|
②□□□ |①-----|
□□□□ |②---③-|
①□③① |----④-|

40
□①□□ |----①-|
□③②□ |②---③-|
□⑤④□ |④---⑤-|
□⑦⑥□ |⑥---⑦-|

41
④②□④ |------|
□□□□ |①-----|
□□□③ |②---③-|
①□□① |----④-|

42
□⑦⑥□ |----①-|
□⑤④□ |②---③-|
□③②□ |④---⑤-|
□①□□ |⑥---⑦-|

43
□□□⑥ |----①-|
④□⑤□ |②---③-|
□③□② |④---⑤-|
⑦□①⑦ |⑥---⑦-|

44
□□①□ |----①-|
□②□□ |②---③-|
□□□□ |------|
□③③□ |------|

45
□□⑥□ |----①-|
⑤□□④ |②---③-|
□③②□ |④---⑤-|
①⑦⑦□ |⑥---⑦-|

46
①③□③ |----①-|
□□②□ |②-----|
④□④□ |③-----|
□□□□ |④-----|

47
□⑦③⑦ |----①-|
④⑥□□ |②---③-|
□②□⑤ |④---⑤-|
□□□① |⑥---⑦-|

48
□□□□ |----①-|
□□①③ |②---③-|
②④⑤□ |④---⑤-|
□⑥□□ |⑥-----|

49
⑦□□⑥ |------|
③□⑧□ |①-②-③-|
□⑤□② |④-⑤-⑥-|
①⑨□④ |⑦-⑧-⑨-|

50
□②⑦□ |①-②-③-|
⑩④□① |④-⑤-⑥-|
⑧□⑪⑤ |⑦-⑧-⑨-|
⑥⑫③⑨ |⑩-⑪-⑫-|

51
□□□□ |①-----|
⑥□⑤① |----②-|
□③□④ |③---④-|
②□□□ |⑤---⑥-|

52
④①③④ |①---②-|
□□□② |③---④-|
□□□□ |------|
□□□□ |------|

53
□④④□ |①---②-|
①□□□ |③---④-|
④□②④ |------|
□③□① |------|

54
④□□④ |①---②-|
□④④① |③---④-|
□②□□ |------|
①□③□ |------|

55
□③□□ |①---②-|
①⑤□② |③---④-|
⑦□④⑧ |⑤---⑥-|
⑤①□⑥ |⑦---⑧-|

56
①④③② |①---②③|
⑥⑧⑦□ |④---⑤-|
□①⑤□ |⑥---⑦-|
⑧⑥□□ |⑧-----|

57
③□□③ |①---②-|
□□□① |----③-|
①③③□ |------|
□□②□ |------|

58
□③③□ |①---②-|
③①□③ |----③-|
□□□□ |------|
②□□① |------|

59
□□□□ |①---②-|
□⑧①□ |③---④-|
□②⑤⑦ |⑤---⑥-|
④⑥③□ |⑦---⑧-|

60
②③④□ |①---②③|
□□⑥① |④---⑤-|
⑤⑦□□ |⑥---⑦-|
□□⑧□ |⑧-----|

61
④③④③ |①---②-|
①□□□ |----③-|
□④③① |----④-|
②□□□ |------|

62
□□□□ |①---②-|
③④③④ |----③-|
①□□② |----④-|
□③④① |------|

63
⑦①⑧⑫ |①-②-③-|
⑪□□□ |④-⑤-⑥-|
□③②④ |⑦-⑧-⑨-|
⑤⑨⑩⑥ |⑩-⑪-⑫-|

64
⑨⑨□□ |①②③④|
⑪①②⑩ |⑤⑥⑦⑧|
⑤③④⑥ |⑨---⑩-|
⑦□□⑧ |--⑪---|

65
□□□□ |①-----|
□□③□ |------|
□②□□ |②-----|
□①①□ |③-----|

66
①□⑥□ |①---②-|
①⑤□□ |--③---|
□□②④ |④---⑤-|
□③□④ |--⑥---|

67
□④□④ |①---②-|
②□③⑥ |----③-|
□□□□ |④-----|
①⑤①⑤ |⑤---⑥-|

68
②□②⑥ |----①-|
⑤①□□ |②-----|
□□□④ |③---④-|
③□□□ |⑤---⑥-|

69
□③□□ |①---②-|
⑤②②③ |----③-|
③①①□ |----④-|
④□③□ |⑤-----|

70
②□①□ |①-----|
□□□⑤ |②---③-|
□⑥□① |----④-|
④③③□ |⑤---⑥-|

71
⑤①⑤① |①-----|
□③□□ |②---③-|
②□⑥□ |④---⑤-|
□⑥□④ |----⑥-|

72
⑥⑥□□ |----①-|
②□□③ |②---③-|
⑤①□□ |④---⑤-|
②□④④ |⑥-----|

73
□□⑤□ |①-②-③-|
⑤②①⑦ |④---⑤-|
□④③⑤ |----⑥-|
□⑤⑥□ |⑦-----|

74
①①□□ |①-----|
□□②□ |②---③-|
③□⑥□ |----④-|
⑤③□④ |⑤---⑥-|

75
①①③② |①-----|
④⑦⑦② |②---③-|
④⑤□□ |④---⑤-|
⑦□⑥⑦ |⑥---⑦-|

76
□□□□ |----①-|
⑤□□⑥ |②-----|
③□②④ |③-④-⑤-|
□①□□ |⑥-----|

77
①⑤⑦③ |①---②-|
⑥②④⑧ |③---④-|
⑤①③⑦ |⑤---⑥-|
□□□□ |⑦---⑧-|

78
②④□④ |①-----|
□□□□ |②---③-|
⑤□⑤□ |----④-|
①□③① |----⑤-|

79
③□①□ |①---②-|
③④②① |③---④-|
□⑦□⑤ |⑤---⑥-|
⑦⑧⑥⑤ |⑦---⑧-|

80
③⑦①⑦ |①---②-|
③④②① |③---④-|
⑥□□⑤ |⑤---⑥-|
□□□⑤ |⑦-----|

81
□□□□ |①-②-③-|
⑫⑥⑤⑪ |④-⑤-⑥-|
⑩④③⑨ |⑦-⑧-⑨-|
⑧②①⑦ |⑩-⑪-⑫-|

82
②④④① |①-----|
□□□□ |②---③-|
□⑤□□ |----④-|
□③③□ |----⑤-|

83
⑤□□② |①-----|
□②⑤□ |②---③-|
□⑥□□ |----④-|
③□④① |⑤---⑥-|

84
□□□② |----①-|
□②□□ |②-----|
□□□① |③-④-⑤-|
③④⑤⑥ |⑥-----|

85
③①□□ |①---②-|
⑦③□④ |③---④-|
①⑤□② |⑤---⑥-|
⑤⑦⑥⑧ |⑦---⑧-|

86
④①②③ |①-②-③-|
⑩④⑤⑥ |④-⑤-⑥-|
①⑦⑧⑨ |⑦-⑧-⑨-|
⑦⑩⑪⑫ |⑩-⑪-⑫-|

87
③□□② |①-----|
□□□□ |②-----|
①□□□ |------|
□□□□ |③-----|

88
②□□① |------|
□□□□ |①-----|
□□□□ |------|
□□□□ |②-----|

89
⑯⑥⑤⑮ |①②③④|
②⑫⑪① |⑤⑥⑦⑧|
⑭⑧⑦⑬ |⑨⑩⑪⑫|
⑩④③⑨ |⑬⑭⑮⑯|

90
□⑥⑤□ |①②③④|
②⑫⑪① |⑤⑥⑦⑧|
□⑧⑦⑬ |⑨⑩⑪⑫|
⑩④③⑨ |⑬---|

91
①□□① |①---②-|
⑤□⑦③ |③---④-|
⑧□□□ |⑤---⑥-|
□④②⑥ |⑦---⑧-|

92
⑦①□⑥ |①---②-|
□④□③ |③---④-|
⑦□□□ |⑤---⑥-|
⑤□②⑦ |----⑦-|

93
□①②□ |----①-|
□□□④ |----②-|
⑤①②③ |----③-|
□②①□ |④---⑤-|

94
□□□⑦ |①---②-|
①⑤③□ |③---④-|
□□⑥□ |⑤---⑥-|
④□□② |⑦-----|

95
□①□⑫ |①-②-③-|
⑪⑦⑥② |④-⑤-⑥-|
⑤□□⑧ |⑦-⑧-⑨-|
⑨③④⑩ |⑩-⑪-⑫-|

96
①②□⑧ |①---②-|
□⑥□③ |③---④-|
⑤①④⑦ |⑤---⑥-|
⑧⑤③□ |⑦---⑧-|

97
②□□□ |----①-|
①□□□ |②---③-|
④⑤⑥⑦ |④-⑤-⑥-|
⑧□③⑧ |⑦---⑧-|

98
□④①⑦ |------|
□②⑤□ |①-②-③-|
□□□⑦ |④-⑤-⑥-|
□⑥③□ |⑦-----|

99
④□④□ |①---②-|
②④□⑥ |----③-|
⑤□□□ |④-----|
③□□① |⑤---⑥-|

100
□②□② |----①-|
④③②□ |②-----|
⑥⑤□□ |③-④-⑤-|
⑧⑦①□ |⑥-⑦-⑧-|

101
□⑦④□ |①-②-③-|
⑩⑧⑤③ |④-⑤-⑥-|
⑪⑨⑥② |⑦-⑧-⑨-|
⑫□□① |⑩-⑪-⑫-|

102
⑤⑦⑩④ |①-②-③-|
□⑪⑧□ |④-⑤-⑥-|
□⑨⑫⑥ |⑦-⑧-⑨-|
□③②① |⑩-⑪-⑫-|

103
□□④③ |①---②-|
②□□□ |------|
□□□□ |③-----|
①□□② |④-----|

104
⑪①⑪⑩ |①-②-③-|
□⑨②④ |④-⑤-⑥-|
③⑤⑧□ |⑦-⑧-⑨-|
⑦⑪⑥⑪ |⑩---⑪-|
最終更新:2024年10月03日 16:04