アットウィキロゴ
BPM:170
1
⑥□⑤□ |----|
□④③□ |----|
□②①□ |①②③④|
□□□□ |⑤-⑥-|
2
□⑥□③ |①-②-|
②⑧⑤□ |③-④-|
④□□① |⑤-⑥-|
⑦④①⑦ |⑦-⑧-|
3
□∨∨□ |----|
①><① |①---|
□①①□ |----|
□□□□ |②---|

□□□□
2□□2
□22□
□□□□
4
□>□① |①-②-|
□□□□ |③-④-|
②□□□ |⑤---|
①□□□ |⑥-⑦-|

□□⑤□
□□□□
□□∧□
□④□□

□□□□
□□□□
□□⑦□
□□□□

□□63
□□□□
□□□□
□□□□
5
□①□□ |①-②-|
□□□□ |③---|
②∧□□ |④-⑤-|
①□□□ |⑥-⑦-|

□□□④
□⑤□□
□□⑥□
□⑦□□

□3□□
□□□□
□□□□
□□□□
6
□□□□ |①-②-|
□>□① |③-④-|
②□□□ |⑤---|
①□□□ |----|

□④□□
□□□□
□□□□
□□⑤

□□□□
□□□3
□□□□
□□□□
7
□⑥⑤□ |①-②-|
□④⑦□ |③-④-|
②⑧□③ |⑤-⑥-|
①□□□ |⑦-⑧-|

□□□□
□□□□
□□□□
□□□1
8
□□⑤① |①-②-|
□□□□ |③-④-|
②□∧∧ |⑤---|
①④□□ |⑥-⑦-|

□□□□
□□□□
□□⑦□
□□□□

□□63
□□□□
□□□□
□□□□
9
□①□□ |①-②-|
□□□□ |③---|
②∧□□ |④-⑤-|
①□□□ |⑥-⑦-|

⑦□□□
□□⑤□
□⑥□□
□□□④

□3□□
□□□□
□□□□
□□□□
10
□□②□ |①-②-|
□③□① |③-④-|
②□④□ |⑤---|
①□□□ |----|

□□□□
□□□□
□□□□
□□⑤
11
□∨∨□ |①-②-|
□□□□ |----|
②③③□ |③---|
①□□□ |④---|

□□□□
□□□□
□44□
□□□1
12
①□□< |①-②-|
□□□□ |----|
□□□② |----|
□□□① |----|
13
1□□□ |①-②-|
□□□□ |③---|
□□□② |④---|
□□□① |⑤---|

⑤□□□
□⑤□④
③□④□
□③□□
14
□①①□ |①-②-|
□□□□ |③-④-|
□∧∧② |⑤---|
□□□① |----|

□□∨□
□□□□
□④⑤□
□□□□

□33□
□□□□
□□□□
□□□□
15
□□□□ |①-②-|
□③③□ |----|
□□□② |③---|
□∧∧① |④---|

□□□□
□44□
□□1□
□□□□
16
∨□□□ |①-②-|
□□□□ |----|
□□□② |----|
①□□① |----|
17
⑤⑤□□ |①-②-|
□□④④ |③---|
③③□② |④---|
□□□① |⑤---|

□□□□
□□□□
□□□□
1□□□
18
□□□□ |①-②-|
∨∨□□ |③-④-|
□□□② |⑤---|
①①□① |----|

□□□□
□⑤④□
□□□□
□∧□□

□□□□
□□□□
□□□□
33□□
19
□□□□ |①-②-|
□□□□ |----|
□□□② |----|
□□□① |----|

□□□□
□1□□
□□□□
□□□□
20
②□④① |①---|
④□□□ |②-③-|
□□∧∧ |④---|
①③□□ |⑤-⑥-|

□□□□
□□□□
⑤□⑥□
□□□□

□□52
□□□□
□□□□
□□□□
21
□①□□ |①---|
□□□① |②---|
□∧□□ |③-④-|
□□②□ |⑤-⑥-|

□□□③
□④□□
□□⑤□
③⑥□□

□2□□
□□□□
□□□□
□□□□
22
□③□□ |①---|
□>□① |②-③-|
①□□□ |④---|
②□□□ |⑤---|

□□□□
④□□□
□□□□
□□④

□□□□
□□□□
□□□□
□⑤□□

□□□□
□□□2
□□□□
□□□□
23
□③②□ |①-②-|
④□□① |③-④-|
□⑦□⑤ |⑤-⑥-|
⑧□⑥□ |⑦-⑧-|

□□□□
□□□□
□□□□
□□□1
24
②□④① |①---|
④□□□ |②-③-|
□□∧∧ |④---|
□③□□ |⑤-⑥-|

□□□□
□□□□
⑤□⑥□
□□□□

□□52
□□□□
□□□□
□□□□
25
□①□□ |①---|
□□□① |②---|
□∧□□ |③-④-|
□□②□ |⑤-⑥-|

⑥□□□
③□④□
□⑤□□
□□□③

□2□□
□□□□
□□□□
□□□□
26
⑥□②□ |①-②-|
⑤③□① |③-④-|
①□④□ |⑤---|
□□⑤ |⑥---|
27
□③②□ |①-②-|
④⑤⑤① |③-④-|
□□□□ |⑤-⑥-|
□∧∧□ |⑦-⑧-|

□□□□
□□□□
□⑦□⑤
⑧□⑥□

□□□□
□77□
□□□□
□□□1
28
①□□< |①---|
□□□□ |②---|
□□□□ |③-④-|
□□□② |⑤---|

□□⑤□
□④□□
□□③□
□□□□
29
1□□□ |①---|
□□□□ |②---|
②□□□ |③---|
□②□① |④---|

④□□□
□④□③
□□③□
□□□□
30
□①①□ |①---|
□□□□ |②-③-|
□∧∧□ |④---|
□□□① |⑤---|

□□∨□
□□□②
□③④□
⑤□□□

□22□
□□□□
□□□□
□□□□
31
□②③□ |①-②-|
①□□④ |③-④-|
□□1□ |⑤-⑥-|
□□□□ |⑦-⑧-|

□□□□
□⑤⑤□
□□□□
□∧∧□

□□□□
□□□□
⑤□⑦□
□⑥□⑧

□□□□
□77□
□□□□
□□□□
32
□□⑤② |①---|
□④□□ |②---|
□□③□ |③-④-|
①□□< |⑤---|
33
④④□□ |①---|
□□③③ |②---|
②②□□ |③---|
□□□① |④---|

□□□□
□□□□
□□□□
1□□□
34
④□②② |①-②-|
①□④④ |--③-|
□③□① |④---|
□□③□ |⑤-⑥-|

□□⑥⑥
□□□□
⑥□⑤□
□□□□
35
⑥①□□ |①-②-|
③⑤③③ |③-④-|
⑥□□⑤ |⑤---|
⑤④⑥② |⑥---|
36
④□②② |①-②-|
①□④④ |--③-|
□③①□ |④---|
□□□③ |⑤-⑥-|

□□⑥⑥
□□□□
⑥□□⑤
□□□□
37
□①□□ |①-②③|
□□⑥□ |④⑤⑥-|
□⑤④□ |⑦---|
□③②□ |⑧---|

⑦□□<
□□□□
□□□□
□□□□

8□□□
□□□□
□□□□
□□□□
38
□□⑥ |①---|
⑤②②∨ |②---|
□□④□ |③-④-|
①③□① |⑤-⑥-|

□□□□
□□□□
□□□□
□□□2
39
②④④□ |--①-|
□□□□ |②---|
□①□□ |③---|
③□□□ |④---|
40
②□□□ |①---|
□□□⑥ |②---|
②④⑤□ |③-④-|
③①□□ |⑤-⑥-|

□□□1
□□□□
□□□□
□□□□
41
□②①□ |--①-|
③□□□ |②-③-|
□⑥□④ |④-⑤-|
⑦□⑤□ |⑥-⑦-|
42
□□②③ |①---|
②□□□ |②---|
□□□□ |③---|
□③□①
43
④②□□ |①---|
□①①③ |②-③-|
□□□□ |④---|
□□③□
44
□□②④ |①---|
③□①□ |②-③-|
①④⑤□ |④-⑤-|
□□□□
45
④②□□ |①---|
□□□□ |②-③-|
□□□③ |④---|
□□③①
46
□□②③ |①---|
③□□□ |②---|
□②□□ |③---|
①□□□
47
④②□□ |①---|
□□□① |②-③-|
□□⑤□ |④-⑤-|
□③□①
48
□□□□ |①---|
①□□< |②---|
□□□□ |③---|
□□□□

□□②③
□□②□
□□□③
□□□□
49
③②□③ |①---|
□□□□ |②---|
□□□□ |③---|
□□①①

□□□□
1□□□
□□□□
□□□□
50
□□②□ |①---|
□□□□ |②---|
□>□① |③-④-|
□□□□

□□□③
③□□□
□④□□
□□□□

□□□□
□□□□
□□□2
□□□□
51
③②□□ |①---|
□□∨□ |②---|
③□□□ |③---|
□□①□

□□□□
□□□□
□□□□
□□2□
52
□□②④ |①---|
③□□□ |②-③-|
□③□□ |④---|
□①□①
53
③②□□ |①---|
□①□① |②---|
□□□③ |③---|
□□③□
54
□□① |①---|
①③③□ |②---|
□②②□ |③---|
□①□□ |④-⑤-|

□□⑤□
□□□□
□□□□
□④□□
55
□②□□ |①-②-|
②⑥⑦□ |--③-|
□④⑤③ |④-⑤-|
□□③□ |⑥-⑦-|

□□□1
□□□□
□□□□
□□□□
56
①②③④ |①--②|
⑥□□⑤ |--③-|
⑤□□⑥ |-④--|
④③②① |⑤--⑥|
57
①□□□ |--①-|
□①□□ |----|
□□①□ |----|
□□□① |----|
58
④□□④ |①-②-|
□③□□ |③---|
□□②□ |④---|
□①□□ |⑤-⑥-|

□□□□
□□□□
□□⑥□
□⑤□□
59
②④③② |①---|
④①□③ |②---|
⑤□□⑥ |③-④-|
□⑤⑥□ |⑤-⑥-|
60
□□□□ |①-②-|
□⑤⑤□ |③-④-|
□②③□ |⑤---|
①⑥⑥④ |--⑥-|
61
②③④□ |--①-|
①□⑤⑥ |②-③-|
□□□□ |④-⑤-|
□□□□ |⑥---|
62
□④④⑤ |①-②-|
□③⑤□ |③---|
□□②□ |④---|
□①□∧ |--⑤-|
63
①□□□ |----|
□①□□ |①---|
□②③□ |②---|
②□□③ |③---|

□□□3
□□□□
□□□□
□□□□
64
□①①□ |①---|
②>□③ |--②-|
②>□③ |③---|
□□□□ |--④-|

□④④□
□□□□
□□□□
□□□□
65
□□□□ |①---|
□④⑤□ |②---|
□③⑥□ |③-④-|
②□□② |⑤-⑥-|

□□□□
□□□1
□□□1
□□□□
66
□②②□ |①---|
①□□① |--②-|
□□□□ |----|
□□□□ |③-④-|

□□∨□
□□□□
□③④□
□□□□
67
□□□□ |----|
②②□□ |----|
□□□□ |①---|
□□□□ |②---|

□□□□
□□□□
□□1□
□□□□
68
③□□③ |①---|
□□∨∨ |----|
∧②□∧ |②---|
□□①① |--③-|

□□□□
□□□□
□□□□
□□22
69
□□□□ |----|
□□□□ |①---|
□□□□ |②---|
□②②□ |----|

1□□1
□□□□
□□□□
□□□□
70
□□①□ |①---|
□□□① |--②-|
□□∧□ |③---|
□□□∧ |--④-|

□□□□
□④④□
□□□□
②□□③

□□3□
□□□3
□□□□
□□□□
71
①□□① |----|
□□□□ |①---|
③□□③ |②---|
□②②□ |③---|
72
□①①□ |①---|
□③□③ |②-③-|
□□②□ |--④-|
②□□□ |⑤-⑥-|

□⑥□□
⑤□⑥□
□④□⑤
□□④□
73
④□①④ |①-②-|
⑥②□② |③-④-|
①④④□ |--⑤-|
③⑤⑦③ |⑥-⑦-|
74
⑤①①⑤ |①-②③|
⑥□□⑦ |④-⑤-|
②③④□ |----|
⑥□□⑦ |⑥-⑦-|
75
□□⑨□ |--①②|
□⑦⑧□ |③-④⑤|
①②⑤④ |⑥-⑦⑧|
□③⑥⑩ |⑨-⑩-|
76
□④□□ |①-②-|
②□⑥□ |③-④-|
□③□□ |⑤-⑥-|
①□⑤□ |--⑦-|

□□□□
□□□□
□□□□
⑦□□⑦
77
⑥⑤③① |--①-|
□□□□ |②-③-|
□□□□ |④-⑤-|
□④②□ |⑥---|
78
□④③□ |--①-|
□□□③ |--②-|
④□②□ |③---|
①⑤□① |④-⑤-|
79
⑤⑥□① |--①-|
□□□□ |②-③-|
□□□② |④-⑤-|
④⑦③□ |⑥-⑦-|
80
□□□□ |①---|
①□□① |--②-|
□□□② |③-④-|
□□②□ |⑤-⑥-|

③③□□
⑥⑥□⑤
④□⑤□
□④□□
81
③②②③ |--①-|
□⑤⑥□ |②-③-|
□④⑦□ |④-⑤-|
①□□① |⑥-⑦-|
82
□②②□ |①---|
①□□① |--②-|
□□□□ |----|
□□□□ |③-④-|

□□∨□
□□□□
□③④□
□□□□
83
①③③□ |--①-|
④④□□ |②---|
□□□□ |③---|
□②□□ |④---|

□□□□
□□□□
□□3□
□□□□
84
□□□□ |①---|
□□∨∨ |②-③-|
③④□□ |④---|
②□①① |⑤-⑥-|

⑥□□⑥
□□□□
∧□⑤∧
□□□□

□□□□
□□□□
□□□□
□□44
85
□①□□ |--①-|
⑤⑤②□ |②-③-|
□③□□ |④---|
□④④□ |⑤---|

2□□2
□□□□
□□□□
□□□□
86
□□①□ |①---|
□□□① |②-③-|
□□∧□ |④---|
□□□∧ |⑤-⑥-|

□□□□
□⑥⑥□
□□②□
③⑤□④

□□4□
□□□4
□□□□
□□□□
87
①□□① |----|
□□□□ |①---|
③□□③ |②---|
□②②□ |③---|
88
□①①□ |①---|
□③□③ |②-③-|
□□②□ |--④-|
②□□□ |⑤-⑥-|

□⑥□□
⑤□⑥□
□④□⑤
□□④□
89
④□①④ |①-②-|
□②□② |③-④-|
①④④⑥ |----|
③⑤□③ |⑤-⑥-|
90
□①①□ |①---|
□③□③ |②-③-|
②□□□ |--④-|
□□②□ |⑤-⑥-|

□⑥□□
⑤□⑥□
□□④⑤
□④□□
91
①④③① |①-②-|
□③⑥④ |--③-|
⑤⑥③⑤ |--④-|
②③□② |⑤-⑥-|
92
④④③□ |①-②-|
②□□④ |③-④-|
□□②□ |----|
①③④① |----|
93
□□□□ |----|
□□□□ |----|
□□□□ |----|
□□□□ |----|
最終更新:2024年10月03日 16:04