アットウィキロゴ
THE LAST OF FIREFACE / 大和
BPM:224
Notes:1018

1
①④□⑧ |①-②-|
⑤□③⑥ |③-④-|
①⑥⑦② |⑤-⑥-|
④□□⑧ |⑦-⑧-|

2
⑤⑥①⑧ |①-②-|
⑦②③□ |③-④-|
④⑧□③ |⑤-⑥-|
⑤⑥①□ |⑦-⑧-|

3
⑦□②□ |①-②-|
⑧②⑤④ |③-④-|
□□①③ |⑤-⑥-|
⑥⑦⑤④ |⑦-⑧-|

4
□①②⑥ |①-②-|
⑧⑤⑧④ |③-④-|
③①②⑦ |⑤-⑥-|
□□⑥④ |⑦-⑧-|

5
②③⑦⑥ |①-②-|
⑧⑤□□ |③-④-|
④①⑤⑦ |⑤-⑥-|
②③□□ |⑦-⑧-|

6
④⑥⑦□ |①-②-|
⑧□②① |③-④-|
□③⑤⑧ |⑤-⑥-|
④⑥②① |⑦-⑧-|

7
⑦⑪⑭⑥ |①-②③|
⑮①②⑩ |④⑤⑥⑦|
③⑤⑧□ |⑧⑨⑩⑪|
⑨⑬⑫④ |⑫⑬⑭⑮|

8
□□□□ |①---|
□□□□ |----|
□②②① |----|
②□□② |--②-|

9
□□②③ |--①-|
④⑤⑥② |②---|
①□□③ |③-④⑤|
⑦①□□ |⑥-⑦-|

10
①②③□ |①-②-|
⑤□□④ |③---|
⑥⑤④⑥ |④-⑤-|
□③②① |--⑥-|

11
□②□② |--①-|
□⑥③③ |②---|
□□⑤□ |③-④⑤|
①④①⑦ |⑥-⑦-|

12
①③⑧□ |①-②-|
①□⑥⑧ |③-④⑤|
⑦⑤□② |⑥-⑦-|
⑨⑦④⑨ |⑧-⑨-|

13
③④⑤⑥ |--①-|
②①□□ |②---|
□□①② |③-④-|
□□□□ |⑤-⑥-|

14
⑦□□⑦ |①-②-|
□□②① |③-④-|
□④③□ |⑤-⑥-|
⑥⑤□⑥ |--⑦-|

15
□④⑦□ |--①②|
①②③⑤ |③-④-|
⑧⑨□⑦ |⑤-⑥-|
□⑥□□ |⑦-⑧⑨|

16
⑤□⑦⑤ |①-②-|
②④□⑦ |③-④-|
⑦□①□ |⑤-⑥-|
⑥⑦③⑥ |--⑦-|

17
③①□③ |--①-|
⑥⑤②⑥ |②---|
□①④□ |③-④-|
□□②□ |⑤-⑥-|

18
⑤③③⑤ |①---|
□□□□ |②---|
④□□④ |③-④-|
①②②① |--⑤-|

19
□□③□ |--①-|
□①①④ |②---|
⑤□⑤□ |③-④-|
③②②⑥ |⑤-⑥-|

20
③⑧⑤① |①-②-|
①⑦③⑥ |③-④-|
□□⑦② |⑤-⑥-|
⑤□④⑧ |⑦-⑧-|

21
②□□② |--①-|
③□④□ |②---|
①⑤□① |③-④-|
□③⑥□ |⑤-⑥-|

22
⑤④□⑤ |①-②-|
□⑦⑦③ |③-④-|
②□□⑥ |⑤-⑥-|
①⑧⑧① |⑦-⑧-|

23
□⑤⑤⑦ |--①②|
⑥□□□ |③-④-|
①②③□ |⑤-⑥-|
④⑧⑧□ |⑦-⑧-|

24
⑤⑦⑤□ |--①②|
□③②① |③-④-|
④□⑧□ |⑤-⑥-|
⑥□□④ |⑦-⑧-|

25
□□④① |①---|
③③③□ |②-③-|
□①□□ |--④-|
④④②⑤ |--⑤-|

26
①①⑤② |①---|
⑤④④① |②---|
②②□□ |③-④-|
⑤④③□ |--⑤-|

27
③②□③ |--①-|
□□⑤② |②---|
③②□□ |③---|
⑤⑤④① |④-⑤-|

28
④④①□ |--①-|
①①□③ |--②-|
③③④④ |③---|
□□□② |④---|

29
□□⑤① |①---|
③⑤③□ |②-③-|
□⑥□□ |④-⑤-|
④②②⑥ |--⑥-|

30
①③□③ |①-②-|
⑥⑦⑤① |③---|
②□□□ |④-⑤-|
④⑤④⑦ |⑥-⑦-|

31
⑥⑦⑧⑨ |--①②|
⑪□⑪⑤ |③④⑤-|
④③②① |⑥⑦⑧⑨|
⑩⑪□⑪ |⑩-⑪-|

32
□⑥⑦⑧ |--①②|
□□□⑤ |③-④-|
□③②① |⑤-⑥⑦|
⑨□④□ |⑧-⑨-|

33
①□□□ |①---|
□□③④ |②-③-|
□②⑤□ |--④-|
□①③④ |--⑤-|

34
②①④□ |①---|
□□⑤□ |②---|
③□□□ |③-④-|
①②⑤④ |--⑤-|

35
④③□① |--①-|
□□□□ |--②-|
□□②① |③---|
④③□□ |④---|

36
□□②④ |①-②-|
□⑤③□ |--③-|
□①⑤④ |--④-|
□□③② |--⑤-|

37
②③□□ |--①-|
④□□① |②---|
□③□□ |③---|
④②□□ |④---|

38
□□③② |①-②-|
□①⑤④ |--③-|
□⑤③□ |--④-|
□□②④ |--⑤-|

39
②③□□ |--①-|
□④□□ |②---|
④□□① |③---|
③②□□ |④---|

40
□⑦⑩② |①-②-|
⑤⑪①④ |③④⑤-|
□⑨①② |⑥-⑦⑧|
⑥③⑫⑧ |⑨⑩⑪⑫|

41
③⑨□⑪ |①②③④|
⑦□②⑥ |⑤⑥⑦-|
①⑩⑨④ |⑧-⑨-|
⑧⑤□⑪ |⑩-⑪-|

42
⑤⑥①⑧ |①-②-|
⑦②③□ |③-④-|
④⑧□③ |⑤-⑥-|
⑤⑥①□ |⑦-⑧-|

43
⑦□②□ |①-②-|
⑧②⑤④ |③-④-|
□□①③ |⑤-⑥-|
⑥⑦⑤④ |⑦-⑧-|

44
□①②⑥ |①-②-|
⑧⑤⑧④ |③-④-|
③①②⑦ |⑤-⑥-|
□□⑥④ |⑦-⑧-|

45
②③⑦⑥ |①-②-|
⑧⑤□□ |③-④-|
④①⑤⑦ |⑤-⑥-|
②③□□ |⑦-⑧-|

46
④⑥⑦□ |①-②-|
⑧□②① |③-④-|
□③⑤⑧ |⑤-⑥-|
④⑥②① |⑦-⑧-|

47
⑦⑪⑭⑥ |①-②③|
⑮①②⑩ |④⑤⑥⑦|
③⑤⑧□ |⑧⑨⑩⑪|
⑨⑬⑫④ |⑫⑬⑭⑮|

48
⑥□⑧④ |①-②-|
□②②□ |③-④-|
③⑦⑤① |⑤-⑥-|
⑥□⑧④ |⑦-⑧-|

49
□□□□ |①---|
①□□① |----|
□□□□ |----|
□□□□ |----|

50
□□□□ |----|
□□□□ |----|
□□□□ |----|
□□□□ |----|

51
□□□□ |----|
□□□□ |----|
□□□□ |----|
□□□□ |----|

52
□□□□ |----|
□□□□ |----|
□□□② |①---|
□□①□ |②---|

53
□⑤①② |①---|
⑤③④□ |②-③-|
①□③□ |--④-|
③①□⑤ |⑤---|

54
③⑤□③ |--①-|
□③④□ |②---|
⑤①□□ |③---|
□□②⑤ |④-⑤-|

55
□□□□ |----|
□③□□ |①---|
□□②□ |②-③-|
①□①□ |----|

56
□⑤⑤□ |①---|
③□□□ |②-③-|
□□④□ |④---|
□①□② |⑤---|

57
⑤□□⑤ |①---|
□③②① |②-③-|
①⑤④□ |--④-|
③①□③ |⑤---|

58
⑤①④□ |--①-|
①③□② |②---|
□⑤□⑤ |③---|
③□□③ |④-⑤-|

59
□②□□ |--①-|
⑤⑥□② |②---|
②□③□ |③-④-|
④④①□ |--⑤⑥|

60
⑧④□□ |①-②-|
□□①⑦ |③-④-|
⑥②□⑤ |⑤-⑥-|
□□③□ |⑦-⑧-|

61
⑧④①③ |①-②-|
②⑥⑥□ |③-④-|
⑦③④□ |⑤-⑥-|
⑤①□⑦ |⑦-⑧-|

62
⑧④⑦□ |①-②-|
②⑥□⑤ |③-④-|
⑦③□□ |⑤-⑥-|
⑤①③⑧ |⑦-⑧-|

63
⑤⑥□① |----|
□□①□ |①---|
□□□□ |②③④-|
②③④□ |--⑤⑥|

64
□□①□ |①-②-|
②⑦⑧□ |③-④-|
⑤④□⑤ |⑤-⑥-|
□□⑥③ |⑦-⑧-|

65
⑤④③② |①---|
⑧□□⑧ |②③④⑤|
□⑦□□ |⑥-⑦-|
①①□⑥ |⑧---|

66
③□□② |--①-|
□③□□ |②---|
⑦⑥⑤④ |③---|
①①□□ |④⑤⑥⑦|

67
□②□④ |①-②-|
□⑤⑤□ |③---|
□□□□ |④-⑤-|
③□①③ |----|

68
□②③□ |①---|
①□□④ |②---|
②□□③ |③---|
□①④□ |④---|

69
①④⑦① |①-②-|
⑤⑧⑥□ |③-④-|
□□③□ |⑤-⑥-|
⑦②□④ |⑦-⑧-|

70
③⑤⑧③ |①-②-|
□□□⑥ |③-④-|
②④□② |⑤-⑥-|
⑧⑦①⑤ |⑦-⑧-|

71
⑥□□③ |①-②-|
②⑤□□ |③-④-|
③□①⑥ |⑤-⑥-|
□⑧④⑦ |⑦-⑧-|

72
□④②□ |①-②-|
③⑧⑤① |③-④-|
□⑥⑦□ |⑤-⑥-|
①□④□ |⑦-⑧-|

73
①④②① |①-②-|
③□⑥⑦ |③-④-|
⑤□□③ |⑤-⑥-|
⑦⑧□⑤ |⑦-⑧-|

74
①⑥④① |①-②-|
③□⑧⑦ |③-④-|
⑤②□③ |⑤-⑥-|
⑦□□⑤ |⑦-⑧-|

75
①⑧⑥④ |①-②-|
③②□□ |③-④-|
⑤□⑦③ |⑤-⑥-|
⑦□①⑤ |⑦-⑧-|

76
①□□⑤ |①---|
④⑧□□ |②-③-④-|
□⑥⑨③ |⑤-⑥-⑦-|
⑩②①⑦ |⑧-⑨-⑩-|

77
⑤③②④ |①---|
□□□① |②-③-|
③⑤□③ |--④-|
□□⑤□ |⑤---|

78
⑥④④⑤ |①-②-|
②②□④ |③---|
⑥□⑥□ |④---|
①①□③ |⑤-⑥-|

79
□②□□ |----|
②□①□ |①---|
□□□□ |--②-|
①□□① |----|

80
□□□④ |①---|
④②③□ |②-③-|
③①①□ |--④-|
□□□② |----|

81
□①①□ |①---|
□□□④ |----|
□③□□ |----|
□□②□ |②-③-④-|

82
③⑪④⑩ |①-②-③-|
□⑦②□ |④-⑤-⑥-|
⑤□⑧⑥ |⑦-⑧-⑨-|
⑨①□⑫ |⑩-⑪-⑫-|

83
⑤□□⑫ |①-②-③-|
①⑪⑩② |④-⑤-⑥-|
⑨③⑧⑥ |⑦-⑧-⑨-|
□⑦④□ |⑩-⑪-⑫-|

84
□①①□ |--①---|
①□□① |----|
□□□□ |----|
□□□□ |----|

85
①④□⑧ |①-②-|
⑤□③⑥ |③-④-|
①⑥⑦② |⑤-⑥-|
④□□⑧ |⑦-⑧-|

86
⑤⑥①⑧ |①-②-|
⑦②③□ |③-④-|
④⑧□③ |⑤-⑥-|
⑤⑥①□ |⑦-⑧-|

87
⑦□②□ |①-②-|
⑧②⑤④ |③-④-|
□□①③ |⑤-⑥-|
⑥⑦⑤④ |⑦-⑧-|

88
□①②⑥ |①-②-|
⑧⑤⑧④ |③-④-|
③①②⑦ |⑤-⑥-|
□□⑥④ |⑦-⑧-|

89
②③⑦⑥ |①-②-|
⑧⑤□□ |③-④-|
④①⑤⑦ |⑤-⑥-|
②③□□ |⑦-⑧-|

90
④⑥⑦□ |①-②-|
⑧□②① |③-④-|
□③⑤⑧ |⑤-⑥-|
④⑥②① |⑦-⑧-|

91
⑦⑪⑭⑥ |①-②③|
⑮①②⑩ |④⑤⑥⑦|
③⑤⑧□ |⑧⑨⑩⑪|
⑨⑬⑫④ |⑫⑬⑭⑮|

□□□⑲ |⑯-⑰-|
□⑰⑰□ |⑱-⑲-|
⑱□□⑯
□□□⑲

92
②□④□ |①-②-|
⑤□⑦⑤ |③-④-|
□③①□ |⑤---⑥-|
②⑥④□ |--⑦---|

93
□①□□ |①---②-|
□③□④ |--③---|
①⑤□⑥ |④---⑤-|
③□□② |--⑥---|

94
①②③④ |①-②-③-|
□⑤□⑫ |④-⑤-⑥-|
⑪□⑥□ |⑦-⑧-⑨-|
⑦⑧⑨⑩ |⑩-⑪-⑫-|

95
①②③④ |①-②-③-|
⑤⑩⑪□ |④-⑤-⑥-|
□⑫⑥□ |⑦-⑧-⑨-|
⑦⑧⑨□ |⑩-⑪-⑫-|

96
⑩⑤□④ |①-②-③-|
⑨□□③ |④-⑤-⑥-|
⑧⑫⑥② |⑦-⑧-⑨-|
⑦□⑪① |⑩-⑪-⑫-|

97
□□⑥④ |①-②-③-|
⑨⑪⑫③ |④-⑤-⑥-|
⑧□⑩② |⑦-⑧-⑨-|
⑦⑤□① |⑩-⑪-⑫-|

98
⑤①□⑦ |①--②-|
□□□③ |-③--④|
⑥②□□ |--⑤--|
□□□④ |⑥--⑦-|

99
□②□□ |-①--②|
□□④□ |--③--|
□③□① |④--⑤-|
□□⑤□ |----|

100
⑥□③⑧ |①-②-|
□④□□ |③-④-|
②⑦⑤② |⑤-⑥-|
①⑥⑧① |⑦-⑧-|

101
□□□□ |①---|
①□□① |----|
□□□□ |----|
□□□□ |----|
最終更新:2024年10月03日 16:05