アットウィキロゴ
BPM:128
1
⑧□□⑧ |---①|
□⑦③④ |②③④-|
①②⑥□ |⑤⑥⑦-|
□⑤□⑨ |⑧-⑨-|
2
⑧①⑦⑧ |--①-|
□⑥⑤② |②-③④|
①④③□ |⑤⑥⑦-|
□□②⑨ |⑧-⑨-|
3
□①④□ |--①-|
①□□④ |②-③-|
③□□② |④-⑤⑥|
□③②□ |⑦---|

□⑦□□
□□⑥□
□⑤□□
□□□□
4
⑨⑦③⑨ |①②③-|
□②⑥□ |④-⑤⑥|
□⑤①□ |⑦-⑧-|
④⑧⑧④ |⑨---|
5
⑧□□⑧ |---①|
□⑦③④ |②③④-|
①②⑥□ |⑤⑥⑦-|
⑨⑤□□ |⑧-⑨-|
6
⑧①⑦⑧ |--①-|
□⑥⑤② |②-③④|
①④③□ |⑤⑥⑦-|
⑨□②□ |⑧-⑨-|
7
□①④□ |--①-|
①□□④ |②-③-|
③□□② |④-⑤⑥|
□③②□ |⑦---|

□⑦□□
□□⑥□
□⑤□□
□□□□
8
⑨⑨⑨⑨ |①②③-|
④③⑦④ |④-⑤⑥|
□⑥②□ |⑦-⑧-|
⑧①⑤⑧ |⑨---|
9
⑦⑨⑦⑤ |-①-②|
①③④① |③④⑤-|
②□□⑥ |⑥-⑦-|
⑧⑥⑩⑧ |⑧-⑨⑩|
10
⑦⑨⑦⑤ |-①-②|
①③④① |③④⑤-|
②□□⑥ |⑥-⑦-|
⑧⑥⑩⑧ |⑧-⑨⑩|
11
⑦⑨⑦⑤ |-①-②|
①③④① |③④⑤-|
②□□⑥ |⑥-⑦-|
⑧⑥⑩⑧ |⑧-⑨⑩|
12
⑦□⑦⑤ |-①-②|
①③④① |③④⑤-|
②□□⑥ |⑥-⑦-|
□⑥□□ |⑧---|

□□□□
⑧□□⑧
□⑧⑧□
⑧□□⑧
13
□⑤□□ |--①-|
□①②④ |②-③④|
□□□□ |⑤-⑥-|
□③□⑥ |⑦⑧⑨⑩|

□□□□
□⑦⑩□
□⑨⑧□
□□□□
14
①□□□ |①--②|
□③□□ |-③④⑤|
①□□□ |⑥-⑦-|
□⑤④② |⑧-⑨-|

□□□□
⑦□□⑥
□□□□
⑧□□⑨
15
□⑤□□ |--①-|
□①②④ |②-③④|
□□□□ |⑤-⑥-|
□③□⑥ |⑦⑧⑨⑩|

□□□□
□⑦⑩□
□⑨⑧□
□□□□
16
①□□① |①---|
④□□④ |②---|
①④④① |③---|
④②③④ |④---|
17
①⑥□① |①-②-|
□②③⑤ |③-④⑤|
①□□① |⑥-⑦-|
□④□⑦ |⑧⑨⑩⑪|

□□□□
□⑧⑪□
□⑩⑨□
□□□□
18
①□□① |①--②|
□③□□ |-③④⑤|
①□□① |⑥-⑦-|
□⑤④② |⑧-⑨-|

□⑦⑥□
⑦□□⑥
□⑧⑨□
⑧□□⑨
19
①⑥□① |①-②-|
□②③⑤ |③-④⑤|
①□□① |⑥-⑦-|
□④□⑦ |⑧⑨⑩⑪|

□□□□
□⑧⑪□
□⑩⑨□
□□□□
20
①⑦□① |①--②|
③□⑥④ |-③④-|
①□□① |⑤-⑥⑦--|
□⑤□② |⑧-⑨-|

□□⑧□
□□□□
□⑧□□
⑨□□⑨
21
①⑥□① |①-②-|
□②③⑤ |③-④⑤|
①□□① |⑥-⑦-|
□④□⑦ |⑧⑨⑩⑪|

□□□□
□⑧⑪□
□⑩⑨□
□□□□
22
①□□① |①--②|
□③□□ |-③④⑤|
①□□① |⑥-⑦-|
□⑤④② |⑧-⑨-|

□⑦⑥□
⑦□□⑥
□⑧⑨□
⑧□□⑨
23
①⑥□① |①-②-|
□②③⑤ |③-④⑤|
①□□① |⑥-⑦-|
□④□⑦ |⑧⑨⑩⑪|

□□□□
□⑧⑪□
□⑩⑨□
□□□□
24
①②□① |①--②|
□□□② |--③-|
①□□① |④⑤⑥⑦|
③□③□ |⑧-⑨-|

□□⑧□
⑨⑤④⑧
□⑦⑥□
□⑨□□
25
①⑥□① |①-②-|
□⑥②□ |③-④⑤-⑥|
①④③① |--⑦--⑧|
□□⑤□ |--⑨---|

□□⑨□
⑧□⑨⑦
□□□□
□⑧□⑦
26
①□□① |①--②-③|
⑥②□⑤ |④-⑤⑥-⑦|
①□□① |--⑧--⑨|
④□⑦③ |⑩--⑪-⑫|

□□⑨□
□⑩□□
□⑧⑧□
□⑪□⑫
27
①⑥□① |①-②-|
□⑥②□ |③-④⑤-⑥|
①④③① |--⑦--⑧|
□□⑤□ |--⑨---|

□□⑨□
⑧□⑨⑦
□□□□
□⑧□⑦
28
①⑩□① |①--②-③|
⑥②⑨⑤ |④-⑤⑥-⑦|
①□□① |⑧-⑨⑩--|
④⑧⑦③ |⑪-⑫-|

□□⑪□
□□□□
□⑪□□
⑫□□⑫
29
①⑥□① |①-②-|
□⑥②□ |③-④⑤-⑥|
①④③① |--⑦--⑧|
□□⑤□ |--⑨---|

□□⑨□
⑧□⑨⑦
□□□□
□⑧□⑦
30
①□□① |①--②-③|
⑥②□⑤ |④-⑤⑥-⑦|
①□□① |--⑧--⑨|
④□⑦③ |⑩--⑪-⑫|

□□⑨□
□⑩□□
□⑧⑧□
□⑪□⑫
31
①⑥□① |①-②-|
□⑥②□ |③-④⑤-⑥|
①④③① |--⑦--⑧|
□□⑤□ |--⑨---|

□□⑨□
⑧□⑨⑦
□□□□
□⑧□⑦
32
①②□① |①--②|
□□□② |--③-|
①□□① |④⑤⑥⑦|
③□③□ |⑧-⑨-|

□□⑧□
⑨⑤④⑧
□⑦⑥□
□⑨□□
33
⑧□□⑧ |---①|
□⑦③④ |②③④-|
①②⑥□ |⑤⑥⑦-|
□⑤□⑨ |⑧-⑨-|
34
⑧①⑦⑧ |--①-|
□⑥⑤② |②-③④|
①④③□ |⑤⑥⑦-|
□□②⑨ |⑧-⑨-|
35
□①④□ |--①-|
①□□④ |②-③-|
③□□② |④-⑤⑥|
□③②□ |⑦---|

□⑦□□
□□⑥□
□⑤□□
□□□□
36 
⑨⑦③⑨ |①②③-|
□②⑥□ |④-⑤⑥|
□⑤①□ |⑦-⑧-|
④⑧⑧④ |⑨---|
37
⑧□□⑧ |---①|
□⑦③④ |②③④-|
①②⑥□ |⑤⑥⑦-|
⑨⑤□□ |⑧-⑨-|
38
⑧①⑦⑧ |--①-|
□⑥⑤② |②-③④|
①④③□ |⑤⑥⑦-|
⑨□②□ |⑧-⑨-|
39
□①④□ |--①-|
①□□④ |②-③-|
③□□② |④-⑤⑥|
□③②□ |⑦---|

□⑦□□
□□⑥□
□⑤□□
□□□□
40
⑨⑨⑨⑨ |①②③-|
④③⑦④ |④-⑤⑥|
□⑥②□ |⑦-⑧-|
⑧①⑤⑧ |⑨---|
41
⑦⑨⑦⑤ |-①-②|
①③④① |③④⑤-|
②□□⑥ |⑥-⑦-|
⑧⑥⑩⑧ |⑧-⑨⑩|
42
⑦⑨⑦⑤ |-①-②|
①③④① |③④⑤-|
②□□⑥ |⑥-⑦-|
⑧⑥⑩⑧ |⑧-⑨⑩|
43
⑦⑨⑦⑤ |-①-②|
①③④① |③④⑤-|
②□□⑥ |⑥-⑦-|
⑧⑥⑩⑧ |⑧-⑨⑩|
44
⑦□⑦⑤ |-①-②|
①③④① |③④⑤-|
②□□⑥ |⑥-⑦-|
□⑥□□ |⑧---|

□□□□
⑧□□⑧
□⑧⑧□
⑧□□⑧
45
□□□① |①-②-|
□□□□ |③--④|
①□□□ |-⑤⑥-|
④③②□ |⑦--⑧|

□⑥□□
⑦□⑤⑦
□□□□
□□⑧□
46
□□②□ |-①②-|
④①□□ |③-④-|
□□□□ |⑤-⑥-|
③□□□ |⑦-⑧-|

□⑦⑧□
□□□⑥
□□□□
□□□⑤
47
□□□① |①-②-|
□□□□ |③--④|
①□□□ |-⑤⑥-|
④③②□ |⑦--⑧|

□⑥□□
⑦□⑤⑦
□□□□
□□⑧□
48
①④③① |①-②-|
⑨⑥⑤⑨ |③④⑤⑥|
①②⑦① |⑦-⑧-|
⑧□□⑧ |⑨---|
49
①□□① |①-②-|
□□□□ |③--④|
①□□① |-⑤⑥-|
④③②④ |⑦--⑧|

□⑥□□
⑦□⑤⑦
□□□□
□□⑧□
50
①□③① |①②③-|
⑤②□□ |④-⑤-|
①□④① |⑥-⑦-|
④□□□ |⑧-⑨-|

□⑧⑨□
□⑨⑧⑦
□⑥□□
□□□⑥
51
①□□① |①-②-|
□□□□ |③--④|
①□□① |-⑤⑥-|
④③②④ |⑦--⑧|

□⑥□□
⑦□⑤⑦
□□□□
□□⑧□
52
①□③① |①②③-|
⑤②□□ |④-⑤-|
①□④① |⑥-⑦⑧--|
④□□□ |⑨-⑩-|

□⑧⑨□
□□⑦□
□⑨□□
⑩⑥□⑩
53
①□□① |①-②-|
□□□□ |③--④|
①□□① |-⑤⑥-|
④③②④ |⑦--⑧|

□⑥□□
⑦□⑤⑦
□□□□
□□⑧□
54
①□③① |①②③-|
⑤②□□ |④-⑤-|
①□④① |⑥-⑦-|
④□□□ |⑧-⑨-|

□⑧⑨□
□⑨⑧⑦
□⑥□□
□□□⑥
55
①□□① |①-②-|
□□□□ |③--④|
①□□① |-⑤⑥-|
④③②④ |⑦-⑧-|

□⑥□□
□□⑤□
□⑦⑧□
□⑧⑦□
56
①②□① |①--②|
□□□② |--③-|
①□□① |④⑤⑥⑦|
③□③□ |⑧-⑨-|

□□⑧□
⑨⑤④⑧
□⑦⑥□
□⑨□□
57
①⑥□① |①-②-|
□⑥②□ |③-④⑤-⑥|
①④③① |--⑦--⑧|
□□⑤□ |--⑨---|

□□⑨□
⑧□⑨⑦
□□□□
□⑧□⑦
58
①□□① |①--②-③|
⑥②□⑤ |④-⑤⑥-⑦|
①□⑦① |--⑧--⑨|
④□⑦③ |--⑩---|

□⑧⑨□
□⑨□□
□⑧□□
⑩□□⑩
59
①⑥□① |①-②-|
□⑥②□ |③-④⑤-⑥|
①④③① |--⑦--⑧|
□□⑤□ |--⑨---|

□□⑨□
⑧□⑨⑦
□□□□
□⑧□⑦
60
①□□① |①-②-|
⑤②□④ |③-④⑤-⑥|
①□□① |⑦-⑧⑨--|
③□⑥□ |⑩-⑪-|

□⑨⑩□
□□⑧□
□⑩□□
⑪⑦□⑪
61
①⑥□① |①-②-|
□⑥②□ |③-④⑤-⑥|
①④③① |--⑦--⑧|
□□⑤□ |--⑨---|

□□⑨□
⑧□⑨⑦
□□□□
□⑧□⑦
62
①□□① |①--②-③|
⑥②□⑤ |④-⑤⑥-⑦|
①□⑦① |--⑧--⑨|
④□⑦③ |--⑩---|

□⑧⑨□
□⑨□□
□⑧□□
⑩□□⑩
63
①⑥□① |①-②-|
□⑥②□ |③-④⑤-⑥|
①④③① |--⑦--⑧|
□□⑤□ |--⑨---|

□□⑨□
⑧□⑨⑦
□□□□
□⑧□⑦
64
①②□① |①--②|
□□□② |--③-|
①□□① |④⑤⑥⑦|
③□③□ |⑧-⑨-|

□□⑧□
⑨⑤④⑧
⑨⑦⑥⑧
□⑨□□
最終更新:2025年01月03日 18:48