アットウィキロゴ
1
□□⑥⑤ |----|
□□②① |----|
□□□□ |--①②|
③④□□ |③④⑤⑥|

2
①⑤□□ |①②③④|
⑨⑦⑩⑧ |⑤⑥⑦⑧|
③⑪④⑥ |⑨-⑩⑪|
⑬⑭⑫② |⑫-⑬⑭|

3
⑦③②① |-①②③|
⑩⑤□⑨ |④⑤⑥⑦|
⑩⑩④⑥ |⑧-⑨-|
⑪⑩⑩⑧ |⑩-⑪-|

4
④③①② |①-②-|
⑥③③⑤ |③-④-|
□□③③ |-⑤⑥⑦|
⑧□⑦⑨ |⑧-⑨-|

5
⑥⑩①⑨ |①②③④|
⑫⑭⑤⑬ |⑤⑥⑦⑧|
④⑧③⑦ |⑨⑩⑪⑫|
□②⑪□ |⑬⑭⑮⑯|

□□⑮□
□□□□
□□□□
□⑯□□

6
⑨□□⑦ |①②③④|
□□③□ |⑤⑥⑦-|
②⑥①⑩ |⑧-⑨⑩|
④⑪⑧⑤ |⑪-⑫-|

□⑫⑫□
⑫⑫□□
⑫□□□
□□□□

7
⑥□□⑤ |--①-|
⑧□④① |②③④⑤|
□③①⑨ |⑥-⑦-|
②⑩⑦① |⑧⑨⑩⑪|

□□□□
□□□⑪
□□□□
□□□□

8
⑨①②⑩ |①②③④|
⑬⑤⑧⑭ |⑤⑥⑦⑧|
⑪③④⑫ |⑨⑩⑪⑫|
⑦⑮□⑥ |⑬⑭⑮-|

9
⑦①①④ |①-②-|
□③⑧□ |③-④-|
⑨①①⑥ |⑤⑥⑦⑧|
⑤□①② |⑨⑩⑪⑫|

□⑪⑩□
□□□□
□□□□
□□□⑫

10
⑤□□□ |①-②-|
④□□② |③-④-|
⑥□③□ |⑤---|
□①□□ |⑥-⑦-|

□□□□
□□□□
□□□□
□⑦□□

11
□□④⑦ |①-②-|
⑤□③□ |③-④-|
□②⑥□ |--⑤-|
□□①□ |⑥-⑦-|

12
④□□□ |--①-|
□③□□ |②-③-|
⑤□□① |④---|
⑥□②□ |⑤-⑥-|

13
□④⑥□ |①-②-|
□③□⑤ |③-④-|
⑦□②□ |--⑤-|
□①□□ |⑥-⑦-|

14
□④□□ |--①-|
③□□□ |②-③-|
⑤□□① |④---|
□⑥②□ |⑤-⑥-|

15
□④□□ |①-②-|
□□③⑤ |③-④-|
⑦②□□ |--⑤-|
□□⑥① |⑥-⑦-|

16
④□□□ |--①-|
③□①□ |②-③-|
⑤□□② |④---|
□⑥□□ |⑤-⑥-|

17
□⑥□④ |①-②-|
⑤□③□ |③-④-|
□②□⑦ |--⑤-|
□□①□ |⑥-⑦-|

18
①□□① |----|
□□②□ |①---|
④□□④ |②-③-|
□③□□ |--④-|

19
□□④□ |----|
□③□⑤ |--①-|
□②□□ |②-③-|
①□□□ |④-⑤-|

20
②□□② |--①-|
□□③□ |②---|
⑤□①⑤ |③-④-|
□④□□ |--⑤-|

21
□⑤□□ |--①-|
⑥□④□ |②-③-|
⑦□③□ |④-⑤-|
□□②① |⑥-⑦-|

22
①□□① |----|
□②□□ |①---|
④□□④ |②-③-|
□□③□ |--④-|

23
□□④□ |----|
①□③⑤ |--①-|
□②□□ |②-③-|
□□□□ |④-⑤-|

24
⑤□□⑤ |--①-|
□②④□ |②---|
□□□□ |③-④-|
①□□③ |--⑤-|

25
□⑥□□ |----|
□□□⑤ |①-②-|
①④□① |③-④-|
□②③□ |⑤-⑥-|

26
⑤□⑥□ |①②③④|
⑨①②□ |⑤⑥⑦-|
③□⑧□ |⑧-⑨⑩|
⑪⑦⑩④ |⑪-⑫-|

□⑫□⑫
□⑫⑫⑫
□⑫□⑫
□□□□

27
①□②⑨ |--①②|
⑦⑩□⑪ |③④⑤⑥|
③⑫④□ |⑦-⑧-|
⑧⑤□⑥ |⑨⑩⑪⑫|

28
□④③⑫ |①②③④|
⑥⑨⑤□ |⑤⑥⑦-|
②□⑩⑧ |⑧-⑨⑩|
□⑪①⑦ |⑪-⑫⑬|

□□⑬□
□□□□
□□□□
□□□□

29
①③⑧□ |-①②③|
⑥⑨⑥② |④-⑤-|
⑥⑥⑩⑤ |⑥-⑦-|
⑥⑦⑥④ |⑧⑨⑩-|

30
②④⑪① |①②③④|
⑧⑫⑬⑤ |⑤⑥⑦⑧|
□⑩□⑨ |⑨⑩⑪⑫|
⑥⑭⑦③ |⑬⑭⑮⑯|

□□□⑮
□□□□
⑯□□□
□□□□

31
②⑧⑧⑩ |①②③④|
⑥⑧⑫③ |⑤⑥⑦-|
⑪⑧⑧⑦ |⑧-⑨-|
④⑨⑤① |⑩⑪⑫⑬|

⑬□□□
□□□□
□□□□
□□□□

32
⑯⑫⑦⑬ |①②③④|
④⑧⑮③ |⑤⑥⑦⑧|
⑭⑥⑪⑨ |⑨⑩⑪⑫|
②⑩⑤① |⑬⑭⑮⑯|

33
⑭⑩⑨⑬ |①②③④|
②⑧⑮③ |⑤⑥⑦⑧|
⑫④⑪⑦ |⑨⑩⑪⑫|
⑥⑯⑤① |⑬⑭⑮⑯|

34
□□⑥□ |①-②-|
□⑦□⑤ |③-④-|
□③□□ |--⑤-|
②□④① |⑥-⑦-|

35
□②□□ |--①-|
①□③④ |②-③-|
□□⑤□ |--④-|
□⑥□□ |⑤-⑥-|

36
□□⑤□ |--①-|
□⑥□④ |②-③-|
□②□□ |--④-|
①□③□ |⑤-⑥-|

37
□②□□ |--①-|
①⑥③④ |②-③-|
□□⑤□ |--④-|
□□□□ |⑤-⑥-|

38
④□□④ |----|
□□□③ |①---|
②□□□ |②-③-|
□①①□ |--④-|

39
□③□□ |----|
□□②□ |①---|
□①①□ |②-③-|
④□□④ |--④-|

40
□□①□ |----|
□□□□ |----|
□□□□ |----|
□②□□ |①-②-|

41
□④⑤□ |--①-|
□②②□ |--②-|
③①①⑥ |③-④-|
□□□□ |⑤-⑥-|

42
④□□④ |----|
□□③□ |①---|
□②□□ |②-③-|
□①①□ |--④-|

43
□□②□ |----|
□□□□ |----|
□③□① |--①-|
□□□□ |②-③-|

44
□□□□ |----|
□□□② |----|
□□①□ |----|
□□□□ |①-②-|

45
□□□□ |----|
③□□□ |①---|
□②□□ |②-③-|
□①①□ |----|

46
□①□□ |--①-|
□□□□ |②-③-|
③⑤②⑥ |--④-|
□③④□ |⑤-⑥-|

47
②□①② |①---|
□□□□ |--②-|
□③③□ |--③-|
④□□□ |--④-|

48
□□③□ |①---|
□②□□ |--②-|
□□□① |③---|
□□□□ |----|

49
①④□① |①---|
□□③④ |②---|
③□□□ |③---|
□②□② |④---|

50
①⑤③□ |--①-|
④②□□ |②---|
④②□□ |③-④-|
①⑤③□ |--⑤-|

51
④□□② |①---|
□⑤③① |②-③-|
□⑤③① |--④-|
④□□② |⑤-⑥-|

□□□□
□□□□
□□□⑥
□□□□

52
④□②□ |①-②-|
③⑤□□ |③---|
③⑤□□ |④-⑤-|
④①②□ |--⑥-|

□⑥□□
□□□□
□□□□
□⑥□□

53
□□④② |①---|
⑤□③① |②-③-|
⑤□③① |--④-|
□□④② |⑤---|

54
□□□② |①-②-|
□①□□ |③-④-|
□③⑥① |--⑤-|
⑤①□④ |⑥-⑦-|

□□□□
□⑦□□
□□□□
□□□□

55
②①①□ |①---|
□□□③ |--②-|
□□□□ |--③-|
□④□□ |--④-|

56
□□□□ |①---|
③①□③ |--②-|
□□①□ |③---|
②□□② |----|

57
□①③□ |①---|
□□②□ |②---|
④②□④ |③---|
□③①□ |④---|

58
①⑦④□ |①-②-|
⑤⑧□② |③-④-|
□③⑥□ |⑤-⑥-|
①⑦④□ |⑦-⑧-|

59
⑤□⑦② |①-②-|
□□③□ |③-④-|
④⑥□① |⑤-⑥-|
⑤□⑦② |⑦---|

60
⑦①□④ |①-②-|
②⑧⑤□ |③-④-|
□⑥□③ |⑤-⑥-|
⑦①□④ |⑦-⑧-|

61
□⑤②⑦ |①-②-|
⑥□□③ |③-④-|
④□①□ |⑤-⑥-|
□⑤②⑦ |⑦---|

62
□□③□ |①-②-|
□①①⑦ |③-④-|
④①①② |--⑤-|
⑥□⑤□ |⑥-⑦-|

63
①□③① |①---|
③④□□ |--②-|
□□④□ |--③-|
□②□② |--④-|

64
③□□③ |①---|
□□①□ |--②-|
②①□② |③---|
□□□□ |----|

65
③①□□ |①---|
②□②① |②---|
□□③□ |③---|
□④□④ |④---|

66
⑧②②⑤ |①---|
⑥②⑦② |②---|
①①□③ |③④⑤⑥|
①④①⑨ |⑦⑧⑨⑩|

□□□□
□□□□
□□□□
⑩□□□

67
⑩⑩⑤□ |①-②③|
⑩⑥⑩⑨ |④-⑤⑥|
②③④⑦ |⑦⑧⑨-|
□⑧①□ |⑩---|

68
⑦□⑦② |--①-|
⑦⑦⑦④ |②-③-|
⑤□⑦□ |④⑤⑥-|
①③⑥① |⑦---|

69
⑩⑨⑩② |①-②③|
⑩⑩⑩⑥ |④⑤⑥⑦|
⑩⑤⑩④ |⑧-⑨-|
③⑦⑧① |⑩---|

70
⑪⑧⑪③ |①②③④|
□□□⑦ |⑤⑥⑦⑧|
⑩④□⑤ |⑨-⑩-|
②⑥⑨① |⑪---|

71
⑩⑪⑪⑨ |①②③④|
④⑪③⑦ |⑤⑥⑦⑧|
⑧②⑪⑤ |⑨-⑩-|
⑥⑪⑪① |⑪---|

72
□□⑤③ |--①-|
①⑥□□ |②-③-|
④②⑦① |④-⑤-|
□□□④ |⑥-⑦-|

73
①⑥⑥④ |①-②-|
⑥⑥⑤⑦ |③-④-|
⑥⑤⑦⑤ |⑤-⑥-|
②③⑤⑦ |⑦---|

74
③□□⑤ |①-②-|
⑤□□□ |③-④-|
⑥④□⑤ |⑤--⑥|
①②□□ |--⑦-|

□□□□
□□□□
□□□□
⑦□□□

75
②③□⑤ |①-②-|
④⑤①□ |③-④-|
□⑥⑤□ |⑤--⑥|
□①□① |--⑦-|

□□□□
□□□□
□□□□
□⑦□□

76
①□①⑦ |①--②|
②⑤⑦③ |③-④-|
④⑥⑤① |⑤--⑥|
□□□□ |⑦-⑧-|

□□□□
□□□□
□□□⑧
□⑧⑧□

77
⑤□□⑧ |①-②-|
③⑩⑩④ |③-④-|
⑦□⑥□ |⑤⑥⑦⑧|
①⑨□② |⑨-⑩-|

78
④②⑤□ |①-②-|
⑤□□□ |③-④-|
⑥③□⑤ |⑤--⑥|
①□□□ |--⑦-|

□□□□
□□□□
□□□□
⑦□□□

79
③②⑤□ |①-②-|
④⑤□□ |③-④-|
□⑥①⑤ |⑤--⑥|
□①□① |--⑦-|

□□□□
□□□□
□□□□
□⑦□□

80
④□⑧① |①--②|
②⑦③③ |③-④-|
①⑤①⑥ |⑤-⑥⑦|
□□④④ |⑧-⑨-|

□⑨□⑨
□□□□
□□□□
□□□□

81
⑥□⑪□ |①-②-|
③⑩⑤② |③-④-|
⑫□⑨⑦ |⑤⑥⑦⑧|
①⑧□④ |⑨⑩⑪⑫|

82
□④□② |①-②-|
④□□③ |--③-|
□□□⑤ |④-⑤-|
□□①⑥ |--⑥-|

83
④□□② |①-②-|
□□□③ |--③-|
□④□⑤ |④-⑤-|
①①□⑥ |--⑥-|

84
□①①② |①-②-|
□□□③ |--③-|
⑤⑤□④ |--④-|
⑥⑥□⑥ |⑤-⑥-|

85
⑩④③② |①-②③|
①⑦⑥⑤ |④-⑤⑥|
□□⑧□ |⑦-⑧-|
□⑨□□ |⑨--⑩⑪⑫|

□□□□
⑪□□□
⑫□□□
□□□□

86
□□⑥⑥ |①-②-|
□④□⑤ |--③-|
□□□③ |④-⑤-|
①□④② |--⑥-|

87
④□□□ |①-②-|
□⑦⑥⑤ |--③-|
□④①③ |④-⑤-|
①□□② |⑥-⑦-|

88
⑦⑥②⑤ |①-②-|
①□□□ |③-④-|
⑦④④⑤ |⑤-⑥-|
①③③□ |--⑦-|

89
□⑪④⑩ |①-②-|
③⑦□⑧ |③-④-|
□⑨⑥⑫ |⑤⑥⑦⑧|
①⑤②① |⑨⑩⑪⑫|

90
□□□□ |①---|
□□□□ |----|
□□□□ |----|
①□□□ |----|
最終更新:2025年01月03日 18:49