アットウィキロゴ
1
□□□⑤ |①②③-|
⑦⑧⑨⑩ |④-⑤-|
⑥④□□ |⑥---|
①②③□ |⑦⑧⑨⑩|

2
④□□⑥ |①②③-|
⑧⑨⑩⑪ |④-⑤-|
□⑤⑦□ |⑥-⑦-|
①②③□ |⑧⑨⑩⑪|

3
⑥□□⑤ |①②③-|
⑧⑨⑩⑪ |④-⑤-|
④□□⑦ |⑥-⑦-|
①②③□ |⑧⑨⑩⑪|

4
⑪①②⑫ |①②③④|
⑬□□⑭ |⑤⑥⑦⑧|
⑨⑤⑥⑩ |⑨⑩⑪⑫|
⑦③④⑧ |⑬⑭⑮⑯|

□⑮⑯□
□□□□
□□□□
□□□□

5
⑧□□⑨ |①②③④|
□⑤□□ |⑤-⑥⑦|
⑥③④⑦ |-⑧-⑨|
⑧①②⑨ |----|

6
□④□□ |①---|
④②②□ |②---|
□□③⑤ |③-④-|
□①⑤□ |--⑤-|

7
□□④□ |①---|
□②②④ |②---|
⑤③□□ |③-④-|
□⑤□① |--⑤-|

8
□④□□ |①---|
④②②□ |②---|
□□③⑤ |③-④-|
①□⑤□ |--⑤-|

9
⑨⑦⑧⑩ |①---|
□⑤⑥② |②---|
②③④□ |③④⑤⑥|
□□□① |⑦⑧⑨⑩|

10
□④□□ |①---|
②□⑤② |②---|
④□□□ |③-④-|
①□③⑤ |--⑤-|

11
□□④□ |①---|
②⑤□② |②---|
③□□④ |③-④-|
⑤①□□ |--⑤-|

12
④□□□ |①---|
□□□□ |②---|
④②②③ |③-④-|
□□□① |--⑤-|

□□□□
□□□⑤
□□□□
□□□⑤

13
□⑦⑧□ |①②③④|
⑪⑤⑥□ |⑤⑥⑦⑧|
⑨③④⑨ |⑨---|
⑩①②□ |⑩-⑪-|

14
□□□② |①---|
□□②□ |--②-|
□□□□ |----|
③①①□ |③---|

15
□②②□ |①---|
②□□② |--②-|
□①①□ |----|
□□□□ |----|

16
②□□① |①-②-|
④②①③ |③-④-|
⑥④③⑤ |⑤---|
□□⑤□ |⑥-⑦-|

□□□□
□□⑦□
□□□□
□□□□

17
□②③④ |①-②-|
□□□□ |--③-|
□□□□ |--④-|
②③④① |----|

18
①②③⑦ |①-②-|
④⑤⑥④ |③-④-|
□□□□ |--⑤-|
□□□□ |⑥-⑦-|

19
□□□□ |①-②-|
□□□□ |③-④-|
④⑥⑤④ |--⑤-|
⑦③②① |⑥-⑦-|

20
□□□③ |--①-|
□①②□ |②-③-|
□⑤④□ |--④-|
⑥□□□ |⑤-⑥-|

21
①②③□ |①-②-|
④⑤⑤④ |③-④-|
④⑤⑤④ |--⑤-|
□③②① |----|

22
□②②□ |①---|
□□□□ |--②-|
□□□□ |----|
①③□① |③---|

23
②□□② |①---|
□②②□ |--②-|
①□□① |----|
□□□□ |----|

24
□①②⑦ |①-②-|
①③④② |③-④-|
③⑤⑥④ |⑤---|
⑤□□□ |⑥-⑦-|

25
④③②□ |①-②-|
①□□□ |--③-|
□□□□ |--④-|
□④③② |----|

26
⑦③②① |①-②-|
④⑥⑤④ |③-④-|
□□□□ |--⑤-|
□□□□ |⑥-⑦-|

27
□□□□ |①-②-|
□□□□ |③-④-|
④⑤⑥④ |--⑤-|
①②③⑦ |⑥-⑦-|

28
③□□□ |--①-|
□②①□ |②-③-|
□④⑤□ |--④-|
□□□⑥ |⑤-⑥-|

29
□③②① |①-②-|
④⑤⑤④ |③-④-|
④⑤⑤④ |--⑤-|
①②③⑥ |⑥-⑦-|

□□□⑦
□□□□
□□□□
□□□□

30
①③□□ |①-②-|
⑦⑤□□ |③-④-|
⑥⑧□□ |⑤-⑥-|
②④□□ |⑦-⑧-|

31
□□③① |①-②-|
□□⑤⑦ |③-④-|
□□⑧⑥ |⑤-⑥-|
□□④② |⑦-⑧-|

32
①③④② |①-②-|
⑤⑦⑥⑧ |③-④-|
⑧⑥⑦⑤ |⑤-⑥-|
②④③① |⑦-⑧-|

33
①②⑩⑪ |①-②-|
□□⑧⑨ |③---|
□□⑥⑦ |④⑤⑥⑦|
③□④⑤ |⑧⑨⑩⑪|

34
①③□□ |①-②-|
⑤⑦□□ |③-④-|
⑧⑥□□ |⑤-⑥-|
②④□□ |⑦-⑧-|

35
□□③① |①-②-|
□□⑤⑦ |③-④-|
□□⑧⑥ |⑤-⑥-|
□□④② |⑦-⑧-|

36
④□□④ |①---|
□⑤③□ |--②③|
□②⑥□ |④---|
①□□① |--⑤⑥|

37
④⑤⑤④ |①-②-|
③□□③ |③-④-|
②□□② |--⑤-|
①⑤⑤① |----|

38
□□□□ |①---|
□①①□ |----|
□①①□ |----|
□□□□ |----|

39
□①①□ |①---|
①□□① |----|
□□□□ |----|
□□□□ |----|

40
□□□□ |①---|
②□□③ |----|
②①①③ |②---|
①□□① |③---|

41
①□□① |①---|
□①①□ |----|
□①①□ |----|
□□□□ |----|

42
□□□□ |①---|
①□□① |----|
①□□① |----|
①□□① |----|

43
①①①① |①---|
□①①□ |----|
□②②□ |②---|
②□□② |----|

44
①□□① |①---|
①□□① |----|
①□□① |----|
□□□□ |----|

45
②②②② |①---|
②□□② |----|
□□□□ |②---|
□①①□ |----|

46
□□□□ |①---|
□□□□ |----|
□□□□ |----|
①①①① |----|

47
①□□① |①---|
□□□□ |----|
②①①③ |②---|
②□□③ |③---|

48
①□□① |①---|
②①①③ |----|
②①①③ |②---|
□□□□ |③---|

49
①①①① |①---|
□①①□ |----|
□□③□ |----|
□②□□ |②③④⑤|

□□⑤□
□④□□
□□□□
□□□□

50
④①□⑤ |①②③-|
□□②□ |④-⑤-|
□③□□ |----|
④□□⑤ |----|

51
④□①⑤ |①②③-|
□②□□ |④-⑤-|
□□③□ |----|
④□□⑤ |----|

52
④①□⑤ |①②③-|
□□②□ |④-⑤-|
□③⑦□ |----|
④⑥□⑤ |--⑥⑦|

53
□⑦⑧□ |①-②-③-|
①⑨⑩④ |④-⑤-⑥-|
②⑪⑫⑤ |⑦⑧⑨⑩|
③⑬⑭⑥ |⑪⑫⑬⑭|

54
①□□□ |①---|
①⑦⑥② |②-③-|
④⑨⑧③ |④-⑤-|
⑤□□□ |⑥⑦⑧⑨|

55
②⑧①① |①---|
③⑥⑦④ |②-③-|
□□□⑤ |④-⑤-|
□□□□ |⑥⑦⑧⑨|

□□⑨□
□□□□
□□□□
□□□□

56
③□□□ |①---|
②□□□ |②-③-|
①①□⑤ |④-⑤-|
⑦⑥□④ |⑥⑦⑧⑨|

□□□□
□□□□
⑨⑧□□
□□□□

57
⑥⑤②① |①②③④|
⑧⑦④③ |⑤⑥⑦⑧|
⑭⑬⑩⑨ |⑨⑩⑪⑫|
⑯⑮⑫⑪ |⑬⑭⑮⑯|

58
④□□⑤ |①---|
□②⑧① |②-③-|
⑥⑦□③ |④-⑤-|
□□□□ |⑥⑦⑧⑨|

□□□□
□□□⑨
□□□□
□□□□

59
⑤⑧⑦⑥ |①---|
□□□□ |②-③-|
⑨□④② |④-⑤-|
③①□□ |⑥⑦⑧⑨|

60
⑪⑮⑭⑬ |①②③④|
③⑦⑥⑤ |⑤⑥⑦⑧|
⑯⑫⑩⑨ |⑨⑩⑪⑫|
⑧④②① |⑬⑭⑮⑯|

61
⑫□⑮⑪ |①②③④|
④⑧⑦③ |⑤⑥⑦⑧|
⑭⑩⑨⑬ |⑨⑩⑪⑫|
⑥②①⑤ |⑬⑭⑮-|

62
□□□□ |①---|
□④②□ |②-③-|
□⑤③⑦ |④-⑤-|
□①①⑥ |⑥-⑦-|

63
□①①② |①---|
④□□③ |②-③-|
⑤□⑥⑦ |④-⑤-|
□□⑧⑨ |⑥⑦⑧⑨|

64
□①①③ |①---|
□□□② |②-③-|
⑤□⑧⑨ |④-⑤-|
④□⑥⑦ |⑥⑦⑧⑨|

65
①②⑤⑥ |①②③④|
③④⑦⑧ |⑤⑥⑦⑧|
⑨⑩⑬⑭ |⑨⑩⑪⑫|
⑪⑫⑮⑯ |⑬⑭⑮⑯|

66
⑤□□④ |①---|
①⑧②□ |②-③-|
③□⑦⑥ |④-⑤-|
□□□□ |⑥⑦⑧⑨|

□□□□
⑨□□□
□□□□
□□□□

67
⑥⑦⑧⑤ |①---|
□□□□ |②-③-|
②④□⑨ |④-⑤-|
□□①③ |⑥⑦⑧⑨|

68
⑬⑭⑮⑪ |①②③④|
⑤⑥⑦③ |⑤⑥⑦⑧|
⑨⑩⑫⑯ |⑨⑩⑪⑫|
①②④⑧ |⑬⑭⑮⑯|

69
□□□⑫ |①②③④|
③⑦⑧④ |⑤⑥⑦⑧|
⑨⑪⑩□ |⑨-⑩-|
⑤①②⑥ |⑪-⑫-|

70
①③□□ |①-②-|
⑦⑤□□ |③-④-|
⑥⑧□□ |⑤-⑥-|
②④□□ |⑦-⑧-|

71
□□③① |①-②-|
□□⑤⑦ |③-④-|
□□⑧⑥ |⑤-⑥-|
□□④② |⑦-⑧-|

72
①③⑦⑤ |①-②-|
⑦⑤□□ |③-④-|
⑥⑧□□ |⑤-⑥-|
②④③① |⑦-⑧-|

73
①②⑩⑪ |①-②-|
□□⑧⑨ |③---|
□□⑥⑦ |④⑤⑥⑦|
③□④⑤ |⑧⑨⑩⑪|

74
①③□□ |①-②-|
⑦⑤□□ |③-④-|
⑥⑧□□ |⑤-⑥-|
②④□□ |⑦-⑧-|

75
□□③① |①-②-|
□□⑤⑦ |③-④-|
□□⑧⑥ |⑤-⑥-|
□□④② |⑦-⑧-|

76
□□④④ |①---|
①□□□ |--②③|
②□□⑤ |④---|
①③⑥□ |--⑤⑥|

77
①②⑨⑩ |①②③④|
③④⑪⑫ |⑤⑥⑦⑧|
⑤⑥⑬⑭ |⑨⑩⑪⑫|
⑦⑧⑮⑯ |⑬⑭⑮⑯|

78
①□⑤⑥ |①②③-|
□②⑦⑧ |④-⑤-|
③□⑨⑩ |⑥---|
④□□□ |⑦⑧⑨⑩|

79
①②⑦⑥ |①②③④|
①②⑪⑫ |⑤-⑥-|
③④⑨⑩ |⑦-⑧-|
③④⑤⑧ |⑨⑩⑪⑫|

80
□□⑨⑩ |①②③④|
①②⑪⑫ |⑤-⑥-|
③④⑧□ |⑦-⑧-|
⑤⑦⑥□ |⑨⑩⑪⑫|

81
①②⑪⑫ |①②③④|
③④⑮⑯ |⑤⑥⑦⑧|
⑤⑥⑬⑭ |⑨⑩⑪⑫|
⑦⑧⑨⑩ |⑬⑭⑮⑯|

82
□□⑦□ |①②③④|
①②⑨⑩ |⑤-⑥-|
③④⑪⑫ |⑦-⑧-|
⑤□⑥⑧ |⑨⑩⑪⑫|

83
①②⑦⑥ |①②③④|
①②⑪⑫ |⑤-⑥-|
③④⑨⑩ |⑦-⑧-|
③④⑤⑧ |⑨⑩⑪⑫|

84
①②⑧⑥ |①②③④|
③④□□ |⑤-⑥-|
□□⑨⑩ |⑦-⑧-|
⑤⑦⑪⑫ |⑨⑩⑪⑫|

85
①②⑨□ |①②③④|
③④⑩⑫ |⑤⑥⑦⑧|
⑤⑥⑪⑬ |⑨-⑩-⑪-|
⑦⑧□⑭ |⑫-⑬-⑭-|

86
①②⑮⑩ |①②③④|
⑤⑥⑬⑫ |⑤⑥⑦⑧|
③④⑪⑭ |⑨⑩⑪⑫|
⑦⑧⑨⑯ |⑬⑭⑮⑯|

87
□□□□ |----|
□□□□ |----|
□□□□ |----|
□□□□ |----|

88
⑩⑨⑨⑪ |①②③④|
③④⑦⑧ |⑤⑥⑦⑧|
①②⑤⑥ |⑨---|
⑩⑨⑨⑪ |⑩-⑪-|
最終更新:2025年01月03日 18:49