アットウィキロゴ
BPM:126
1
⑦③□④ |①---|
⑥②□□ |②③-④|
①□⑤① |--⑤-|
□①①□ |--⑥⑦|
2
□□④② |-①②-|
□③□① |③-④-|
□□□□ |⑤⑥-⑦|
□□□□ |-⑧--|

⑤□□□
⑥□□⑦
□□⑧□
□□□□
3
⑦③□④ |①---|
⑥②□□ |②③-④|
①□⑤① |--⑤-|
□①①□ |--⑥⑦|
4
□④②□ |①-②-|
□□□□ |③-④-|
①③③① |⑤--⑥|
③①①③ |-⑦⑧-|

⑤□⑧⑤
⑦⑤⑤⑦
⑥⑦⑦⑥
□⑥⑥□
5
⑦③□④ |①---|
⑥②□□ |②③-④|
□□⑤□ |--⑤-|
①□□① |--⑥⑦|
6
□□④② |-①②-|
□③□① |③-④-|
□□□□ |⑤⑥-⑦|
□□□□ |-⑧⑨-|

⑤□□⑦
⑥□□□
⑧□⑨⑧
□⑧⑧□
7
⑧③□④ |①---|
⑦②□□ |②③-④|
⑤□⑥⑤ |⑤-⑥-|
①⑤⑤① |--⑦⑧|
8
□□□□ |①-②-|
□□□□ |③-④-|
③②④③ |⑤⑥⑦⑧⑨⑩⑪⑫|
①③③① |⑬⑭--|

⑨⑩⑪⑫
⑤⑥⑦⑧
⑭□□⑭
⑬□□□
9
⑥□④□ |①-②-|
②③□⑦ |③-④-|
□□①⑤ |⑤-⑥-|
⑦⑤③① |⑦---|
10
□④□⑤ |①-②-|
③⑦②□ |③-④-|
□①⑥□ |⑤-⑥-|
⑦⑤③① |⑦---|
11
④□②□ |①-②-|
□□□□ |③-④-|
①③□□ |⑤-⑥-|
□□③① |⑦---|

□□⑦□
□□□⑤
□□⑥□
⑦⑤□□
12
□□□⑦ |①-②-|
②③⑤⑥ |③-④-|
①□④□ |⑤-⑥-|
⑦⑤③① |⑦---|
13
④②□□ |①-②-|
□□③□ |③-④-|
①□④② |⑤-⑥-|
□□③① |⑦-⑧-|

□□⑥⑧
⑦□□⑤
⑧⑥□□
⑦⑤□□
14
①④□□ |①-②-|
□②□③ |③-④-|
□□④② |⑤-⑥-|
□□③① |⑦-⑧-|

□□□⑤
□⑦⑥□
⑧⑥□□
⑦⑤⑧□
15
①②③④ |①②③④|
□□□⑤ |⑤⑥⑦⑧|
□⑤①⑥ |⑨⑩⑪⑫|
□□⑧⑦ |⑬⑭⑮⑯|

⑬⑭⑮⑯
⑫⑨⑬□
⑪□□□
⑩⑨□□
16
□⑤⑥⑦ |①-②-|
⑧②□④ |③-④-|
□①①□ |⑤⑥⑦-⑧---|
③□□③ |⑨-⑩-|

□□□□
□⑨⑩□
⑨⑩⑩⑩
□⑨⑩□
17
①⑧⑧③ |①---|
②⑥⑥③ |②-③---|
④⑤⑤□ |④-⑤--⑥|
⑦□□① |⑦-⑧---|
18
①□□□ |①-②--③|
④⑤⑤□ |④-⑤---|
□③③□ |⑥-⑦⑧--|
□②②□ |⑨-⑩-|

□⑧⑧□
□□□⑦
⑥⑩⑩□
⑨□□⑨
19
①③③① |①-②-|
③□□□ |③---|
□□□□ |④-⑤--⑥|
□②②□ |⑦-⑧---|

□⑧□⑧
□⑥□⑥
④⑤□⑤
⑦□□□
20
①□□□ |①-②--③|
④⑤□⑤ |④-⑤---|
□③□③ |⑥-⑦⑧--|
□②□② |⑨-⑩-|

□⑧⑧⑩
□□⑦□
⑥□□⑩
⑨⑩□⑨
21
①④□⑨ |①-②-|
③③③⑦ |③-④---|
⑤⑩②⑥ |⑤-⑥--⑦|
⑧⑧①□ |⑧-⑨⑩--|
22
①①⑤□ |①-②--③|
④④③□ |④-⑤⑥--|
□□②□ |⑦-⑧⑨--|
□⑥□□ |⑩-⑪-|

□□□□
□⑪□⑦
⑦⑨⑪□
⑩□⑧⑩
23
①□□① |①-②-|
③□②④ |③-④---|
□③□① |⑤-⑥--⑦|
□□③□ |⑧-⑨⑩--|

□□⑨□
□□⑦□
⑤⑩⑥□
⑧⑧□□
24
①□□③ |①-②-|
③②□□ |③-④-|
□□④□ |⑤-⑥⑦|
□□□① |⑧⑨⑩-|

□⑨⑨□
□⑦⑦⑥
⑤⑤□⑩
□□⑧□
25
①□□① |①---|
②③④⑥ |②-③-|
□□⑦□ |④--⑤|
□⑤⑤□ |-⑥⑦-|
26
①⑤②⑥ |①-②③-④|
□③□□ |⑤-⑥⑦-⑧|
⑦□□④ |⑨-⑩⑪-⑫|
□□□□ |⑬-⑭-|

□⑭⑭□
⑨□⑧⑩
□⑬□□
□⑪□⑫
27
①□□① |①-②-|
③②②④ |③-④---|
□□①④ |⑤-⑥---|
□□□□ |⑦-⑧⑨--|

□⑧⑥□
□⑧□□
⑤□⑥□
⑦□□⑨
28
①□□□ |①-②-|
③□②□ |③-④-|
□□④③ |⑤--⑥-⑦|
□□①□ |⑧-⑨-|

□⑧⑧□
□□□⑤
⑤⑥□□
⑨⑦⑦⑨
29
①□□① |①-②-|
③□②③ |③-④-|
□④□□ |⑤-⑥--⑦|
□□□□ |⑧-⑨⑩--|

□⑩⑨□
□□⑦□
⑤□⑥□
⑧□□□
30
①□□□ |①-②--③|
④□⑥⑤ |④-⑤⑥--|
□□□③ |⑦-⑧⑨--|
□□□② |⑩-⑪-|

□⑨⑧□
□□□□
⑦⑪⑪□
⑩□□⑩
31
①□□① |①-②-|
③□□④ |③-④-|
③□□④ |⑤--⑥|
□②②□ |-⑦⑧-|

⑦⑤⑤⑧
□□□□
□□□□
□⑥⑥□
32
□□□□ |①-②-|
□□□□ |③-④-|
③④②③ |⑤⑥⑦⑧⑨⑩⑪⑫|
①③③① |⑬⑭--|

⑨⑩⑪⑫
⑤⑥⑦⑧
⑭□□⑭
⑬□□□
33
□□□□ |①---|
□□□□ |----|
□①①□ |----|
□①①□ |----|
34
□□□□ |----|
□□□□ |----|
□□□□ |----|
□□□□ |----|
35
□□□□ |----|
□□□□ |----|
□□□□ |----|
□□□□ |----|
36
□□□□ |----|
□□□□ |----|
□□□□ |----|
□□□□ |----|
37
⑦③□④ |①---|
⑥②□□ |②③-④|
□□⑤□ |--⑤-|
①□□① |--⑥⑦|
38
□□④② |-①②-|
□③□① |③-④-|
□□□□ |⑤⑥-⑦|
□□□□ |----|

⑤□□□
⑥□□⑦
□□□□
□□□□
39
□③⑦④ |①---|
□②□⑥ |②③-④|
□□⑤□ |--⑤-|
①□□① |⑥-⑦-|
40
①②□□ |①-②-|
□□③⑥ |③-④-|
□□⑦④ |⑤--⑥|
□⑤⑤□ |-⑦--|
41
⑦③□④ |①---|
⑥②□□ |②③-④|
□□⑤□ |--⑤-|
①□□① |--⑥⑦|
42
□□④② |-①②-|
□③□① |③-④-|
□□□□ |⑤⑥-⑦|
□□□□ |----|

⑤□□⑦
⑥□□□
□□□□
□□□□
43
□③□④ |①---|
□②□□ |②③-④|
□□⑤□ |--⑤-|
①□□① |----|
44
□④②□ |①-②-|
□□□□ |③-④-|
①③③① |⑤--⑥|
③①①③ |-⑦--|

⑤□□⑤
⑦⑤⑤⑦
⑥⑦⑦⑥
□⑥⑥□
45
□③□□ |①---|
□②□□ |②③-④|
□□□□ |⑤-⑥⑦|
①□②① |⑧⑨⑩-|

□□⑤□
⑦□④⑩
□⑥⑨□
⑧⑤□□
46
□⑪⑪⑨ |①②-③|
□④⑥⑧ |④-⑤⑥|
②③⑤□ |⑦⑧⑨-|
⑩⑦④① |⑩⑪--|
47
□□□□ |①---|
③□□⑤ |②③-④|
□①①④ |⑤-⑥⑦|
□⑤②① |⑧⑨⑩-|

⑦□□⑩
□⑥⑨□
□□□□
⑧□□□
48
□②②□ |①---|
□□□□ |②---|
□①①□ |③--④|
□□②① |-⑤--|

⑤□□⑤
④⑤⑤④
③④④③
□③□□
49
□②□□ |①-②-|
④□□⑥ |③④⑤⑥|
□□⑤② |⑦-⑧⑨|
□□③① |⑩⑪⑫-|

□⑨⑫⑦
□⑧⑪□
⑫⑧□□
⑩⑦□□
50
□⑤□② |①②③④|
□④□□ |⑤-⑥⑦|
□□□③ |⑧⑨⑩-|
□□⑤① |⑪-⑫-|

⑦□□⑩
⑥⑪⑪⑨
⑫⑩⑥□
⑪⑧□□
51
①②③④ |①②③④|
□□□⑤ |⑤⑥⑦⑧|
□⑤①⑥ |⑨⑩⑪⑫|
□□⑧⑦ |⑬⑭⑮⑯|

⑬⑭⑮⑯
⑫⑨⑬□
⑪□□□
⑩⑨□□
52
□⑤⑥⑦ |①-②-|
⑧②□④ |③-④-|
□①①□ |⑤⑥⑦-⑧---|
③□□③ |⑨---|

□□□□
□□⑨□
⑨□□⑨
□⑨□□
53
□③□④ |①---|
□②□② |②③-④|
□①①□ |⑤-⑥-|
①□②① |⑦-⑧⑨|

⑨□□□
⑧□⑦□
□□⑥□
⑦⑤□□
54
□□⑤③ |①②③-|
□④□② |④-⑤-|
④□□□ |⑥⑦-⑧|
□□④① |⑨⑩--|

⑥□□□
⑦□□⑧
□⑨⑩□
⑨⑥□□
55
⑨③□④ |①---|
⑧②⑦② |②③-④|
□□⑥① |⑤-⑥-|
⑦⑤②① |⑦-⑧⑨|
56
□②④□ |①-②-|
□□□□ |③-④-|
③③□① |⑤--⑥|
□□□① |-⑦--|

⑥□□⑦
⑦⑥⑦⑥
□⑦⑥□
□⑤⑤□
57
□③□④ |①---|
□②□② |②③-④|
①□□① |⑤-⑥-|
①□②① |⑦-⑧⑨|

⑨□□□
⑧□⑦□
□□⑥□
⑦⑤□□
58
□□⑤③ |①②③-|
□④□② |④-⑤-|
④□□□ |⑥⑦-⑧|
□□④① |⑨⑩--|

⑥□□□
⑦□□⑧
□⑨⑩□
⑨⑥□□
59
□③□④ |①---|
□②□② |②③-④|
□□□① |⑤-⑥-|
□□②① |⑦-⑧⑨|

⑨□⑤□
⑧□⑦□
⑤□⑥□
⑦⑤□□
60
⑦□④⑦ |①-②-|
⑥③□⑥ |③-④-|
②□□① |⑤--⑥|
□⑤⑤① |-⑦--|
61
□□□□ |①---|
□①①□ |----|
□①①□ |----|
□□□□ |----|
最終更新:2025年01月03日 18:49