アットウィキロゴ
BPM:144
1
□①①④ |①-②-|
③□□□ |③-④-|
□□□□ |⑤-⑥-|
□②□□ |⑦---|

□⑦□□
□□□□
⑥□⑤□
□□□□
2
⑥□□⑥ |①-②③|
②③④□ |④-⑤-|
□⑦⑦□ |⑥---|
①⑤□① |⑦---|
3
④①①□ |①-②-|
□□□③ |③-④-|
□□□□ |⑤-⑥-|
□□②□ |⑦---|

□□⑦□
□□□□
□⑤□⑥
□□□□
4
⑥□□⑥ |①-②③|
□④③② |④-⑤-|
⑦□□⑦ |⑥---|
①□⑤① |⑦---|
5
□①①④ |①-②-|
③③□□ |③-④-|
□□□□ |⑤-⑥-|
□②□□ |⑦-⑧-|

⑦⑦□□
□□□□
⑥□⑤⑤
□□⑧□
6
⑥□④⑥ |①-②③|
②③④□ |④-⑤-|
□⑦⑦□ |⑥---|
①⑤□① |⑦---|
7
④①①□ |①-②-|
□□③③ |③-④-|
□□□□ |⑤-⑥-|
□□②□ |⑦---|

□□⑦⑦
□□□□
⑤⑤□⑥
□□□□
8
□④□□ |①-②③|
□④③② |④-⑤-|
□□□□ |⑥---|
①□⑤① |⑦---|

⑥□□⑥
⑦□□⑦
□□□□
□□□□
9
④④④④ |①---|
□③③③ |②---|
□□②② |③---|
□□□① |④---|
10
□⑤⑧□ |①-②-|
①□□③ |③-④-|
□⑥⑦□ |⑤-⑥-|
②□□④ |⑦-⑧-|
11
□②□④ |①-②③|
③□⑤⑧ |④⑤⑥⑦|
⑩⑥□□ |⑧-⑨-|
⑦①①⑨ |⑩---|
12
①②③④ |①②③④|
⑤⑥⑦⑧ |⑤⑥⑦⑧|
⑫⑪⑩⑨ |⑨⑩⑪⑫|
⑯⑮⑭⑬ |⑬⑭⑮⑯|
13
③⑧⑤① |①-②-|
□□□□ |③-④-|
④⑦⑥② |⑤-⑥-|
□□□□ |⑦-⑧-|
14
④□②□ |①-②③|
□⑤□③ |④⑤⑥⑦|
□□⑥□ |⑧-⑨⑩|
□①①⑦ |⑪-⑫-|

□□□□
⑧□⑪□
□⑩□□
⑨□⑫□
15
①②③④ |①②③④|
⑤⑥⑦⑧ |⑤⑥⑦⑧|
⑨⑩⑪⑫ |⑨⑩⑪⑫|
⑬⑭⑮⑯ |⑬⑭⑮⑯|
16
①⑤⑧③ |①-②-|
□□□□ |③-④-|
②⑥⑦④ |⑤-⑥-|
□□□□ |⑦-⑧-|
17
□②□④ |①-②③|
③□⑤⑧ |④⑤⑥⑦|
⑩⑥□□ |⑧-⑨-|
⑦①①⑨ |⑩---|
18
□⑤⑤□ |①---|
①④④③ |②--③|
⑤②②⑤ |④---|
□①①□ |⑤---|
19
□□□□ |①-②-|
①②②③ |③-④-|
□①①□ |⑤-⑥-|
②□□④ |⑦-⑧-|

⑥□□⑧
□□□□
⑤⑥⑥⑦
□⑤⑤□
20
④②③□ |①-②-|
□□□□ |③-④-|
□□□□ |⑤-⑥-|
①③④② |⑦-⑧-|

□⑧□⑦
⑥□⑧⑤
⑤⑦□⑥
□□□□
21
□□□□ |①②③④|
⑨⑩⑪⑫ |⑤⑥⑦⑧|
⑧⑦⑥⑤ |⑨⑩⑪⑫|
④③②① |⑬-⑭-|

□□□⑬
□□□□
□□□⑭
□□□□
22
□①①□ |①---|
③③□□ |②---|
□□□④ |--③-|
②□□② |--④-|
23
□□②③ |①-②③|
⑦⑥⑤④ |④⑤⑥⑦|
⑧⑨⑨□ |⑧---|
□①□□ |--⑨-|
24
①□□① |①---|
□□□□ |②---|
②□□② |--③-|
□□□□ |--④-|

③③□□
□□□④
□□□□
□□□□
25
④④④□ |①-②③|
③□□□ |④---|
②□①□ |⑤---|
□□□□ |⑥---|

□□□□
□⑤⑤⑤
⑥⑥⑥□
□□□□
26
□①①□ |①---|
③③□□ |②---|
□□□④ |--③-|
②□□② |--④-|
27
□□②③ |①-②③|
⑦⑥⑤④ |④⑤⑥⑦|
⑧⑨⑨□ |⑧---|
□①□□ |--⑨-|
28
①□□① |①---|
④④④④ |②---|
②□□② |--③-|
③③③③ |--④-|
29
①①①① |①---|
□□□□ |②---|
□②②□ |--③-|
□□□□ |--④-|

□□□□
③③③③
④④④④
□□□□
30
①①①① |①---|
□②②□ |②---|
□□□□ |--③-|
□□□□ |--④-|

□□③③
□□□□
④□□□
□□□□
31
□□□□ |①---|
④④④□ |②---|
□③③③ |③---|
②①②□ |④---|
32
①①①① |①-②③|
□□□□ |④-⑤-|
②③④□ |⑥---|
⑤□□□ |⑦-⑧-|

□□□□
⑦⑥□⑥
□⑧□□
□□□□
33
□□□⑦ |①---|
□□□② |②-③-|
⑥□③□ |④-⑤-|
①⑤□④ |⑥-⑦-|
34
□□□□ |①-②③|
②③④□ |④-⑤-|
□①①□ |⑥---|
⑤□□□ |⑦-⑧-|

□□□□
□⑧□□
⑥□⑦⑥
□□□□
35
□①①□ |①---|
□③③③ |----|
②②②□ |②---|
□□□□ |③---|
36
①①①① |①-②③|
□□□□ |④-⑤-|
□④③② |⑥---|
□□□⑤ |⑦-⑧-|

□□□□
⑥□⑥⑦
□□⑧□
□□□□
37
③③□□ |①-②-|
⑥⑦⑧④ |③-④-|
⑤⑤□⑨ |⑤-⑥⑦|
②□□① |⑧-⑨-|
38
□①①□ |①-②-|
⑦⑤⑤□ |③-④-|
□③□⑧ |⑤-⑥-|
②⑥□④ |⑦-⑧-|
39
□①①① |①---|
④④④① |②---|
③③①□ |③---|
②□①□ |④---|
40
①①①① |①-②③|
□□□□ |④-⑤-|
②③④□ |⑥---|
⑤□□□ |⑦-⑧-|

□□□□
⑦⑥□⑥
□⑧□□
□□□□
41
□□□⑦ |①---|
□□□② |②-③-|
⑥□③□ |④-⑤-|
①⑤□④ |⑥-⑦-|
42
□□□□ |①-②③|
②③④□ |④-⑤-|
□①①□ |⑥---|
⑤□□□ |⑦-⑧-|

□□□□
□⑧□□
⑥□⑦⑥
□□□□
43
□①①□ |①---|
□③③③ |----|
②②②□ |②---|
□□□□ |③---|
44
①①①① |①-②③|
□□□□ |④-⑤-|
□④③② |⑥---|
□□□⑤ |⑦-⑧-|

□□□□
⑦⑥⑥□
□⑧□□
□□□□
45
①①□□ |①-②-|
⑦⑤⑤② |③-④-|
⑥□□④ |⑤---|
③③□□ |⑥-⑦-|
46
①①①□ |①-②-|
□⑥⑥② |③-④-|
□③③□ |⑤---|
⑤⑤□④ |⑥---|
47
□①①□ |①---|
①□□① |----|
□□□□ |②---|
□□□□ |③---|

□□□□
□③③③
②②②□
□□□□
48
①①①① |①-②-|
⑥⑤⑤□ |③-④-|
②□③③ |⑤---|
④⑦□□ |⑥-⑦-|
49
□③□③ |①-②-|
□□□□ |③-④-|
①②①② |⑤-⑥-|
④□④□ |⑦-⑧-|

⑤□⑤□
□⑥□⑥
⑦□⑦□
□⑧□⑧
50
□□□□ |①---|
①□①□ |----|
□②□□ |----|
□□□□ |②---|
51
①□□① |①---|
□②②□ |----|
□□□□ |----|
□□□□ |②---|
52
⑯⑮⑭⑬ |①②③④|
⑫⑪⑩⑨ |⑤⑥⑦⑧|
⑧⑦⑥⑤ |⑨⑩⑪⑫|
④③②① |⑬⑭⑮⑯|
53
□□□□ |①②③④|
□□□□ |⑤⑥⑦⑧|
⑤⑥⑦⑧ |⑨---|
④③②① |⑩---|

□□□□
□□□⑨
□□□□
□⑩⑩□
54
①□□① |①---|
□□□□ |----|
□□□□ |----|
□□□□ |----|
最終更新:2025年01月03日 18:50