アットウィキロゴ
BPM:140
1
□□□① |①---|
□□□□ |----|
□②②□ |②---|
□③③□ |--③-|
2
□□②□ |①-②-|
③①□□ |-③④⑤--|
④□□□ |⑥-⑦-|
⑤□□□ |⑧-⑨-|

□□□□
□⑨⑧□
□⑦⑥□
□□□□
3
□□①① |①-②-|
□□④□ |③-④-|
③□□□ |⑤---⑥⑦|
□□②□ |⑧-⑨-|

□□□□
□□□⑥
⑨□□⑦
⑤⑤□⑧
4
①①⑥□ |①---②③|
□⑦②⑥ |④-⑤-|
□⑧③□ |⑥---⑦⑧|
⑤⑨④⑩ |⑨-⑩-|
5
①□□① |①--②|
②□□② |--③-|
③④④③ |④---|
□□□□ |⑤-⑥-|

⑤□□□
□□□□
□□□□
□⑥⑥□
6
□□②□ |①-②-|
③①□□ |-③④⑤--|
④□□□ |⑥-⑦-|
⑤□□□ |⑧-⑨-|

□□□□
□⑨⑧□
□⑦⑥□
□□□□
7
□□①① |①-②-|
□□④□ |③-④-|
③□□□ |⑤---⑥⑦|
□□②□ |⑧-⑨-|

□□□□
□□□⑥
⑨□□⑦
⑤⑤□⑧
8
①①□□ |①---|
□□⑤② |----②③|
□⑧⑥③ |④---⑤⑥|
□□⑦④ |⑦--⑧|
9
①□□① |①--②|
②□□② |--③-|
③□□③ |----|
□④④□ |--④-|
10
□□②□ |①-②-|
③①□□ |-③④⑤--|
④□□□ |⑥-⑦-|
⑤□□□ |⑧-⑨-|

⑧□□□
□⑨⑧□
□⑦⑥□
□□□□
11
□□①① |①-②-|
□□④□ |③-④-|
③□□□ |⑤---⑥⑦|
□□②□ |⑧-⑨-|

□□□□
□□□⑥
⑨⑧□⑦
⑤⑤□⑧
12
①①⑥□ |①---②③|
□⑦②⑥ |④-⑤-|
□⑧③⑨ |⑥---⑦⑧|
⑤⑨④⑩ |⑨-⑩-|
13
①□□① |①--②|
②□□② |--③-|
③④④③ |④---|
□□□□ |⑤-⑥-|

⑤□□□
□□□□
□□□□
□⑥⑥□
14
□□②□ |①-②-|
③①□□ |-③④⑤--|
④□□□ |⑥-⑦-|
⑤□□□ |⑧-⑨-|

⑧□□□
□⑨⑧□
□⑦⑥□
□□□□
15
□□①① |①-②-|
□□④□ |③-④-|
③□□□ |⑤---⑥⑦|
□□②□ |⑧-⑨-|

□□□□
□□□⑥
⑨⑧□⑦
⑤⑤□⑧
16
①①□□ |①---|
□□⑤② |----②③|
⑦□⑥③ |④---⑤⑥|
⑧□⑦④ |⑦-⑧-|
17
①□□① |①--②|
②⑧□② |--③-|
③□□③ |----④⑤⑥-|
④⑤⑥⑦ |⑦-⑧-|
18
③□②② |①--②|
□□□□ |----|
□□①① |----|
□□□□ |③---|
19
□□②□ |①---|
□①①② |----|
□□□□ |②---|
□□□□ |----|
20
□□□□ |①--②|
①①□□ |----|
□□□□ |----|
②②□□ |----|
21
③③□□ |①-②-|
□①④② |--③-|
□④①□ |④---|
⑤□□② |⑤---|
22
③□②② |①--②|
□□□□ |----|
□□①① |----|
□□□□ |③---|
23
□□□□ |①---|
□①①□ |----|
□□□□ |②---|
□□□□ |③---|

□□□③
□□③□
□□□②
□□②□
24
□□□□ |①--②|
①①□□ |----|
□□□□ |----|
②②□□ |----|
25
③③⑤□ |①-②-|
⑥①④② |--③-|
⑦④①□ |④---|
□□□② |⑤-⑥⑦|
26
□□④④ |①---|
⑥□□③ |--②③|
⑤□□② |④---|
①①□□ |--⑤⑥|
27
①①□□ |①---|
□□□□ |--②③|
□□③□ |④-⑤-|
□□②□ |⑥--⑦|

⑦⑦□□
□④④⑥
□□□□
⑤□□□
28
□□⑥□ |①---|
□②⑤□ |--②③|
□③□□ |④---|
④④①① |--⑤⑥|
29
□□□□ |①---|
②□□□ |----|
③□①① |----|
□□□□ |--②③|
30
□□④④ |①---|
⑥□□③ |--②③|
⑤□□② |④---|
①①□□ |--⑤⑥|
31
①①□□ |①---|
□□□□ |--②③|
□□③□ |④-⑤-|
□□②□ |⑥--⑦|

⑦⑦□□
□④④⑥
□□□□
⑤□□□
32
②□□② |①---|
③□□③ |----|
□□□□ |----|
□□①① |--②③|
33
□□□□ |①---|
□□□□ |----|
①□□① |----|
□②②□ |--②-|
34
□□②□ |①-②-|
③①□□ |-③④⑤--|
④□□□ |⑥-⑦-|
⑤□□□ |⑧-⑨-|

⑧□□□
□⑨⑧□
□⑦⑥□
□□□□
35
□□①① |①-②-|
□□④□ |③-④-|
③□□□ |⑤---⑥⑦|
□□②□ |⑧-⑨-|

□□□□
□□□⑥
⑨□□⑦
⑤⑤□⑧
36
①①⑥□ |①---②③|
□⑦②⑥ |④-⑤-|
□⑧③⑨ |⑥---⑦⑧|
⑤⑨④⑩ |⑨-⑩-|
37
①□□① |①--②|
②□□② |--③-|
③④④③ |④---|
□□□□ |⑤-⑥-|

⑤□□□
□□□□
□□□□
□⑥⑥□
38
□□②□ |①-②-|
③①□□ |-③④⑤--|
④□□□ |⑥-⑦-|
⑤□□□ |⑧-⑨-|

⑧□□□
□⑨⑧□
□⑦⑥□
□□□□
39
□□①① |①-②-|
□□④□ |③-④-|
③□□□ |⑤---⑥⑦|
□□②□ |⑧-⑨-|

□□□□
□□□⑥
⑨□□⑦
⑤⑤□⑧
40
①①□□ |①---|
□□⑤② |----②③|
⑦⑧⑥③ |④---⑤⑥|
□□⑦④ |⑦--⑧|
41
①④□① |①--②|
②□□② |--③-|
③□□③ |④---|
□□□□ |----|
42
□□□□ |①---|
□□□□ |②---|
□④②□ |③---|
□③①□ |④---|
43
□□□□ |①---|
□⑤□② |②---|
□□④① |--③④|
⑥③□□ |⑤-⑥-|
44
□□□□ |①--②|
□□③② |③-④-|
①□□□ |⑤--⑥|
□□□④ |⑦-⑧-|

⑥⑦□□
□□□□
⑧□□⑤
□□□□
45
□□③② |①--②|
①⑤⑤□ |③-④-|
□⑥⑥④ |⑤-⑥-|
□⑦⑦□ |⑦---|
46
④□□□ |①--②|
□□□② |----|
③□□□ |③--④|
□□□① |----|
47
□□②□ |①--②|
④□□□ |----|
□□①□ |③--④|
③□□□ |----|
48
□④④□ |①--②|
□②②□ |----|
□③③□ |③--④|
□①①□ |----|
49
①□□① |①-②-③-|
②□□② |④-⑤-|
③□⑤③ |⑥---⑦⑧|
④□□④ |⑨-⑩-|

□⑥⑥□
□⑦□□
□⑧□□
⑩⑨□□
50
③□②② |①--②|
□□□□ |----|
□□①① |----|
□□□□ |③---|
51
□□②□ |①---|
□①①② |----|
□□□□ |②---|
□□□□ |----|
52
□□□□ |①--②|
①①□□ |----|
□□□□ |----|
②②□□ |----|
53
③□③□ |①-②-|
□①④② |--③-|
□④①□ |④---|
⑤□□② |⑤---|
54
③□②② |①--②|
□□□□ |----|
□□①① |----|
□□□□ |③---|
55
□□□□ |①---|
□①①□ |----|
□□□□ |②---|
□□□□ |③---|

□□□③
□□③□
□□□②
□□②□
56
□□□□ |①--②|
①①□□ |----|
□□□□ |----|
②②□□ |----|
57
①□□① |①---|
□①①□ |----|
□□□□ |②--③|
□□□□ |--④⑤|

□□□□
④③③□
⑤②②□
□□□□
58
□□④④ |①---|
⑥□□③ |--②③|
⑤□□② |④---|
①①□□ |--⑤⑥|
59
①①□□ |①---|
□□□□ |--②③|
□□③□ |④-⑤-|
□□②□ |⑥--⑦|

⑦⑦□□
□④④⑥
□□□□
⑤□□□
60
□□⑥□ |①---|
□②⑤□ |--②③|
□③□□ |④---|
④④①① |--⑤⑥|
61
□□□□ |①---|
②□□□ |----|
③□①① |----|
□□□□ |--②③|
62
□□④④ |①---|
⑥□□③ |--②③|
⑤□□② |④---|
①①□□ |--⑤⑥|
63
①①□□ |①---|
□□□□ |--②③|
□□③□ |④-⑤-|
□□②□ |⑥--⑦|

⑦⑦□□
□④④⑥
□□□□
⑤□□□
64
②□□② |①---|
③□□③ |----|
□□□□ |----|
□□①① |--②③|
65
□□□□ |①---|
□□□□ |----|
①□□① |----|
□□□□ |--②③|

□□□□
②□□□
③□□□
□□□□
66
□□⑤⑤ |①--②|
⑦□②④ |--③④|
⑥□□③ |⑤---|
①①①□ |--⑥⑦|
67
①①□□ |①---|
□□□□ |--②③|
□□③① |④-⑤-|
□□②□ |⑥--⑦|

⑦⑦□□
□④④⑥
□□□□
⑤□□□
68
□□⑦② |①--②|
□③⑥□ |--③④|
□④□① |⑤---|
⑤⑤①① |--⑥⑦|
69
③③□□ |①-②-|
⑤①④□ |--③-|
⑥④①① |④---|
□□②② |--⑤⑥|
70
□□⑤⑤ |①--②|
⑦□②④ |--③④|
⑥□□③ |⑤---|
①①①□ |--⑥⑦|
71
①①□□ |①---|
□□□□ |--②③|
□□③① |④-⑤-|
□□②□ |⑥--⑦|

⑦⑦□□
□④④⑥
□□□□
⑤□□□
72
□□□② |①--②|
□□□□ |----|
□□□① |----|
□□①① |--③④|

③□□③
④□□④
□□□□
□□□□
73
⑤③③□ |①-②-|
□□④□ |--③-|
①④□① |④---|
□□②② |⑤---|
74
□□②② |①--②|
□□□□ |--③-|
□□①① |④--⑤|
□③□□ |--⑥-|

⑤□□□
□□□□
④□□⑥
□□□□
75
□③□□ |①--②|
⑤□②□ |--③-|
□□□⑦ |④--⑤|
④□①⑥ |--⑥⑦|
76
②□②□ |①--②|
□⑤□⑤ |--③-|
①□①□ |④--⑤|
③④⑥④ |--⑥-|
77
②□□② |①--②|
□□□□ |--③-|
①□□① |④⑤--|
□③□□ |⑥---|

□⑥□□
□④⑤⑥
⑥⑤④□
□□⑥□
最終更新:2025年01月03日 18:50