アットウィキロゴ
1
□□□□ |①--②|
□□□□ |--③④|
□□□□ |⑤⑥⑦⑧|
①―<□ |⑨⑩⑪-|

□⑨□②
⑪□□⑧
③④⑤⑥
②⑦□⑩

2
□□□□ |①--②|
□□□□ |--③④|
□□□□ |⑤⑥⑦⑧|
①―<□ |⑨⑩⑪⑫|

□□⑧②
⑨⑩⑪⑫
③④⑤⑥
②⑦□□

3
□□□□ |①--②|
□□□□ |--③④|
□□□□ |⑤⑥⑦⑧|
①―<□ |⑨⑩⑪-|

□⑨□②
⑪□□⑧
③④⑤⑥
②⑦□⑩

4
――① |①--②|
□□□□ |--③④|
□□□□ |⑤⑥⑦⑧|
①―<□ |⑨-⑩-|

□⑨⑩⑨
□□②⑧
③④⑤⑥
②⑦□□

5
□□④□ |①--②|
①②③③ |--③-|
□□□□ |-④--|
③□①① |⑤---|

⑤――<
□□□□
□□⑤⑤
□□□□

6
①□□□ |----|
□□②① |----|
□□□□ |----|
□□□□ |--①②|

7
□□□□ |①---|
□①□□ |----|
□|□□ |----|
□∧□□ |--②③|

□□□□
□②□□
□③②□
□□□□

8
∨□□□ |①---|
|□□□ |--②-|
①□□□ |----|
□□□□ |③---|

□□□②
□□□|
②□□∧
□□□□

□□□③
□③③□
□□□□
□□□□

9
①①③□ |①--②|
□□□① |--③-|
③③□□ |-④--|
④□②□ |⑤---|

□□□□
⑤⑤□□
□>―⑤
□□□□

10
□>―② |①-②-|
□□□□ |--③-|
□□□① |④---|
□□□□ |----|

□∨∨③
□||□
□||□
□④④□

11
□□□□ |----|
□□□□ |----|
□□□□ |----|
□□□□ |----|

12
□□□□ |----|
□□②① |----|
□□□□ |---①|
□②②③ |②-③-|

13
①⑤③□ |①②③-|
⑨②□⑦ |④⑤-⑥|
④□□□ |⑦-⑧⑨|
□⑧⑥⑩ |--⑩-|

14
①⑤③□ |①②③-|
⑨②□⑦ |④⑤-⑥|
④□□□ |⑦-⑧⑨|
□⑧⑥⑩ |--⑩-|

15
①⑤③□ |①②③-|
⑨②□⑦ |④⑤-⑥|
④□□□ |⑦-⑧⑨|
□⑧⑥⑩ |--⑩-|

16
②□□⑤ |--①-|
□①①□ |②③④⑤|
④⑥⑥③ |--⑥-|
□□□□ |----|

17
①⑨②⑩ |①②③④|
⑤⑬⑥⑭ |⑤⑥⑦⑧|
⑦⑮⑧⑯ |⑨⑩⑪⑫|
③⑪④⑫ |⑬⑭⑮⑯|

18
①⑤②⑥ |①②③④|
⑨⑬⑭⑩ |⑤⑥⑦⑧|
⑪⑮⑯⑫ |⑨⑩⑪⑫|
③⑦④⑧ |⑬⑭⑮⑯|

19
①②③④ |①-②-③-|
⑫□□⑤ |④-⑤-⑥-|
⑪□□⑥ |⑦-⑧-⑨-|
⑩⑨⑧⑦ |⑩-⑪-⑫-|

20
□②②□ |①---|
③①①□ |----|
④①①□ |②---|
⑤②②□ |③④⑤-|

21
□②②□ |①--②|
□□□□ |----|
□①①□ |③-④⑤|
□□□□ |-⑥⑦-|

□□□□
□>―③
□>―③
□④□□

□□⑦□
□⑤□⑦
□□⑥⑦
□□□□

22
□□□□ |①-②③|
①―<□ |-④⑤-|
①―<□ |⑥---|
□□②□ |--⑦-|

□⑤□□
⑤□③□
⑤④□□
――⑥

□□□□
□□□□
□□□□
□□□⑦

23
③②②□ |①--②|
④□□□ |---③④⑤|
⑤①①□ |⑥-⑦⑧|
⑥―<□ |-⑨⑩-|

□⑩□□
□□⑧□
□⑨□□
⑩□⑦□

24
□□□□ |①-②③|
□>―① |-④⑤-|
□>―① |⑥---|
□②□□ |----|

□□⑤□
⑥③□⑤
⑥□④⑤
□□□□

25
□②②□ |①--②|
□□□□ |----|
□①①□ |③-④⑤|
□□□□ |-⑥⑦-|

□□□□
□>―③
□>―③
□④□□

□□⑦□
□⑤□⑦
□□⑥⑦
□□□□

26
□□□□ |①-②③|
①―<□ |-④⑤-|
①―<□ |⑥---|
□□②□ |⑦⑧⑨⑩|

□⑤□□
⑤⑦③□
⑤④□□
□⑨⑧⑥

□□□□
□□⑩□
□□□□
□□□□

27
①⑨⑪③ |①②③④|
⑦□□⑧ |⑤⑥⑦⑧|
⑬⑤⑥⑭ |⑨⑩⑪⑫|
②⑩⑫④ |⑬⑭⑮⑯|

⑮□□⑯
□□□□
□□□□
□□□□

28
⑮⑦⑥⑭ |①②③④|
⑬⑤⑧⑯ |⑤⑥⑦⑧|
⑨②③⑫ |⑨⑩⑪⑫|
①⑩⑪④ |⑬⑭⑮⑯|

29
□②②□ |①--②|
□□□□ |----|
□①①□ |③---|
③□□③ |④-⑤-|

□□⑤⑤
□□□□
④④□□
□□□□

30
⑤□□□ |①--②|
③□□② |--③-|
□□□□ |④---|
④①①④ |⑤---|

31
□②②③ |①--②|
□⑨⑩④ |---③④⑤|
□⑦⑧⑤ |⑥-⑦⑧|
□①①⑥ |⑨⑩⑪⑫|

□⑪⑫□
□□□□
□□□□
□□□□

32
□□□□ |①②③④|
③□□④ |⑤---|
□□□□ |⑥---|
□①②□ |----|

□□□□
□□□□
⑤―<□
⑤―<□

□□□⑥
□□□□
⑥□□□
⑥□□□

33
□②②□ |①--②|
□□□□ |----|
□①①□ |③---|
③□□③ |④-⑤-|

□□⑤⑤
□□□□
④④□□
□□□□

34
□□□□ |①--②|
②⑦□□ |---③④⑤|
⑥⑤④③ |⑥---|
□①①□ |⑦⑧⑨⑩|

□□□□
□□⑩□
□□□□
□⑨⑧□

35
①⑨⑪③ |①②③④|
⑦□□⑧ |⑤⑥⑦⑧|
⑬⑤⑥⑭ |⑨⑩⑪⑫|
②⑩⑫④ |⑬⑭⑮⑯|

⑮□□⑯
□□□□
□□□□
□□□□

36
⑮⑦⑥⑭ |①②③④|
⑬⑤⑧⑯ |⑤⑥⑦⑧|
⑨②③⑫ |⑨⑩⑪⑫|
①⑩⑪④ |⑬⑭⑮⑯|

37
∨□□□ |①---|
|□□□ |----|
②①①② |②---|
□□□□ |③--④⑤⑥|

□□□□
□□□□
③□□□
□⑥⑤④

38
□□①① |①--②|
②□|| |③---|
□□∧∧ |④--⑤|
①□□□ |⑥-⑦⑧|

④④③③
||□⑤
∧∧□□
□□□□

⑥⑥□□
□□□□
□⑦⑧□
□□□□

39
□□□□ |①--②|
②□□□ |---③④⑤|
②□□① |⑥--⑦|
□⑤④③ |⑧-⑨-|

□□⑥⑥
□⑦||
□□∧∧
⑥□□□

□□⑧⑧
□□□□
□□□⑨
□□□□

40
□□□□ |①-②③|
①―<□ |-④⑤-|
①―<□ |⑥--⑦|
□□②□ |⑧-⑨-|

⑥⑤□⑥
⑤⑦③|
⑤④□∧
□□□□

□□□⑧
□□□□
□□⑨□
□□□□

41
□□□□ |①---|
∨□□□ |②---|
|□□□ |③--④|
①□□① |⑤--⑥⑦⑧|

□□③③
④□||
□□∧∧
②□□□

□□⑤⑤
□□□□
□□□□
□⑧⑦⑥

42
④④□□ |①--②|
□□□③ |--③-|
②□□| |④---|
①□□∧ |⑤-⑥-|

□□□□
□□□⑤
□⑥□□
□□□□

43
□②∨□ |①---|
□||□ |--②-|
□||□ |----|
□∧①□ |----|

44
□②□□ |①---|
□□①□ |----|
□①□□ |②---|
□□②□ |----|

45
①⑤③□ |①②③-|
⑨②□⑦ |④⑤-⑥|
④□□□ |⑦-⑧⑨|
□⑧⑥⑩ |--⑩-|

46
①⑤③□ |①②③-|
⑨②□⑦ |④⑤-⑥|
④□□□ |⑦-⑧⑨|
□⑧⑥⑩ |--⑩-|

47
①⑤③□ |①②③-|
⑨②□⑦ |④⑤-⑥|
④□□□ |⑦-⑧⑨|
□⑧⑥⑩ |--⑩-|

48
②①①⑤ |--①-|
□⑥⑦□ |②③④⑤|
④⑧⑨③ |⑥⑦⑧⑨|
□□□□ |----|

49
①⑨②⑩ |①②③④|
⑤⑬⑥⑭ |⑤⑥⑦⑧|
⑦⑮⑧⑯ |⑨⑩⑪⑫|
③⑪④⑫ |⑬⑭⑮⑯|

50
①⑤②⑥ |①②③④|
□⑨⑩□ |⑤⑥⑦⑧|
□⑪⑫□ |⑨⑩⑪⑫|
③⑦④⑧ |----|

51
④⑤⑧⑨ |①②③④|
③⑥⑦⑩ |⑤⑥⑦⑧|
②⑮⑭⑪ |⑨⑩⑪⑫|
①⑯⑬⑫ |⑬⑭⑮⑯|

52
⑦⑧⑨⑩ |①---|
□□□② |②---|
③④⑤⑥ |③④⑤⑥|
①□□□ |⑦⑧⑨⑩|

53
⑬⑨⑫⑭ |①②③④|
①⑦⑧④ |⑤⑥⑦⑧|
⑪⑤⑥⑩ |⑨⑩⑪⑫|
③□□② |⑬⑭⑮⑯|

□□□□
⑮□□⑯
□□□□
□□□□

54
⑨⑩⑪⑫ |①②③④|
□⑤⑥□ |⑤⑥⑦⑧|
⑦①④⑧ |⑨⑩⑪⑫|
⑬③②□ |⑬⑭⑮⑯|

□□□□
□□□□
□□□□
□⑭⑮⑯

55
⑨⑤⑥⑫ |①②③④|
①⑦⑧④ |⑤⑥⑦⑧|
⑬③②⑭ |⑨⑩⑪⑫|
⑮⑪⑩⑯ |⑬⑭⑮⑯|

56
⑨①④⑫ |①②③④|
⑤⑥⑦⑧ |⑤⑥⑦⑧|
⑪③②⑩ |⑨⑩⑪⑫|
□□□□ |⑬⑭⑮⑯|

□⑬⑯□
□□□□
□□□□
□⑮⑭□

57
⑬⑨⑫⑭ |①②③④|
①⑦⑧④ |⑤⑥⑦⑧|
⑪⑤⑥⑩ |⑨⑩⑪⑫|
③□□② |⑬⑭⑮⑯|

□□□□
⑮□□⑯
□□□□
□□□□

58
⑪⑨□⑩ |①②③④|
□⑤⑥□ |⑤⑥⑦⑧|
⑦①④⑧ |⑨-⑩⑪|
□③②⑫ |⑫⑬⑭⑮|

□□□□
□□□□
□□□□
⑮⑭⑬□

59
⑫⑥⑤⑨ |①②③④|
④⑧⑦① |⑤⑥⑦⑧|
⑭②③⑬ |⑨⑩⑪⑫|
⑯⑩⑪⑮ |⑬⑭⑮⑯|

60
⑫④①⑨ |①②③④|
⑧⑦⑥⑤ |⑤⑥⑦⑧|
⑩②③⑪ |⑨⑩⑪⑫|
□⑭⑬□ |⑬⑭⑮⑯|

□□□□
□□□□
□⑯⑮□
□□□□

61
③②□□ |①--②|
③⑦①□ |----|
□⑤⑥□ |③④⑤⑥|
①□④② |⑦⑧⑨⑩|

□⑨⑩□
□□⑧□
□□□□
□□□□

62
⑦□□⑧ |①②③④|
⑤□□⑥ |⑤⑥⑦⑧|
③⑨⑨④ |⑨---|
①①□② |⑩-⑪-|

□□□□
□□□□
□□□□
⑩□□⑪

63
□②②□ |①--②|
①②②① |----|
③③③③ |③--④|
□①①□ |-⑤⑥⑦|

□□□⑤
④□□④
□□□□
□⑥□⑦

64
⑦①④□ |①②③④|
⑧③②□ |⑤--⑥--⑦-⑧-⑨-|
⑨⑤⑥□ |⑩--⑪|
⑩□□□ |--⑫-|

□⑪□⑪
□□□□
□□□□
□□□⑫

65
⑬⑨⑫⑭ |①②③④|
③⑦⑧② |⑤⑥⑦⑧|
⑪①④⑩ |⑨⑩⑪⑫|
□⑤⑥□ |⑬⑭⑮⑯|

□□□□
⑮□□⑯
□□□□
□□□□

66
⑪⑨□⑩ |①②③④|
□⑤⑥□ |⑤⑥⑦⑧|
⑦①④⑧ |⑨-⑩⑪|
□③②⑫ |⑫⑬⑭⑮|

□□□□
□□□□
□□□□
⑮⑭⑬□

67
⑫⑥⑤⑨ |①②③④|
④⑧⑦① |⑤⑥⑦⑧|
⑭②③⑬ |⑨⑩⑪⑫|
⑯⑩⑪⑮ |⑬⑭⑮⑯|

68
□②①□ |①②③-|
□□□□ |④⑤⑥⑦|
―③□ |⑧⑨⑩⑪|
□□□□ |⑫⑬⑭⑮|

⑧□□⑪
④⑤⑥⑦
⑭□④⑮
⑫⑩⑨⑬

69
□①①□ |①---|
□□□□ |----|
□①①□ |----|
□□□□ |----|
最終更新:2025年01月03日 18:51