アットウィキロゴ
BPM:180
1
□□□□ |①-②-|
□□②□ |③-④-|
□①□□ |----|
□□□□ |----|

□□□□
□□④
③□□□
□□□□
2
□□□□ |----|
□□□1 |----|
□□□□ |①---|
□□□□ |----|
3
□□□□ |①-②-|
□①□□ |③-④-|
□□②□ |----|
□□□□ |----|

□□□□
③□□□
□□④
□□□□
4
□□□□ |----|
□□□□ |----|
□□□1 |①---|
□□□□ |----|
5
□□□□ |①-②-|
□□②□ |③-④-|
□①□□ |----|
□□□□ |----|

□□④□
□□□□
□□□□
□③∧□
6
□□1□ |----|
□□□□ |----|
□□□□ |①---|
□□□□ |----|
7
□□□□ |①-②-|
□①□□ |③-④-|
□□②□ |----|
□□□□ |----|

□③∨□
□□□□
□□□□
□□④□
8
□□□□ |----|
□□□□ |----|
□□□□ |①---|
□□1□ |----|
9
①□⑥① |①---|
□③□⑧ |②-③④|
②④□⑦ |⑤-⑥-|
□⑤□□ |⑦-⑧-|
10
□□⑥□ |①---|
②③□⑦ |②-③④|
□④□⑧ |⑤-⑥-|
①⑤□① |⑦-⑧-|
11
①□⑥① |①---|
□③□⑧ |②-③④|
②④□⑦ |⑤-⑥-|
□⑤□□ |⑦-⑧-|
12
□□⑥□ |①---|
②③□⑦ |②-③④|
□④□⑧ |⑤-⑥-|
①⑤□① |⑦-⑧-|
13
①□⑥① |①---|
□③□⑧ |②-③④|
②④□⑦ |⑤-⑥-|
□⑤□□ |⑦-⑧-|
14
□□⑥□ |①---|
②③□⑦ |②-③④|
□④□⑧ |⑤-⑥-|
①⑤□① |⑦-⑧-|
15
①□⑧① |①---|
□③□⑥ |②-③④|
②④□⑦ |⑤-⑥-|
□⑤□□ |⑦-⑧-|
16
□□□□ |----|
□□□□ |----|
□□□□ |----|
□□□□ |----|
17
③⑦②① |①-②-|
⑨④④③ |③-④⑤|
①⑤⑦⑥ |⑥-⑦-|
⑧⑥⑨⑧ |⑧-⑨-|
18
③⑦②① |①-②-|
⑧④④③ |③-④⑤|
①⑤⑦⑥ |⑥-⑦-|
⑨⑥⑨⑧ |⑧-⑨-|
19
③⑦①② |①-②-|
⑨④③⑦ |③-④⑤|
①⑤⑥④ |⑥-⑦-|
⑧⑥⑧⑨ |⑧-⑨-|
20
③⑦①② |①-②-|
⑧④③⑦ |③-④⑤|
①⑤⑥④ |⑥-⑦-|
⑨⑥⑧⑨ |⑧-⑨-|
21
③⑧②① |①-②-|
⑦④④⑥ |③-④⑤|
①⑤⑦③ |⑥-⑦-|
⑨⑥⑨⑧ |⑧-⑨-|
22
③⑦②① |①-②-|
⑧④④⑥ |③-④⑤|
①⑤⑦③ |⑥-⑦-|
⑨⑥⑨⑧ |⑧-⑨-|
23
③⑨③① |①-②-|
⑦④④⑥ |③-④⑤|
①⑤⑧② |⑥-⑦-|
⑧⑥⑨⑦ |⑧-⑨-|
24
③□②③ |①-②-|
⑨⑤⑥□ |③-④-|
①⑦⑧① |⑤⑥⑦⑧|
⑨④□□ |⑨---|
25
④⑩⑮⑪ |①②-③|
⑭⑥⑦③ |④⑤⑥⑦|
①⑦⑬⑨ |⑧⑨⑩⑪|
⑫⑧⑤② |⑫⑬⑭⑮|
26
④⑩⑮⑪ |①②-③|
⑫⑥⑦③ |④⑤⑥⑦|
①⑦⑬⑨ |⑧⑨⑩⑪|
⑭⑧⑤② |⑫⑬⑭⑮|
27
④⑩⑬⑮ |①②-③|
⑭⑥⑤⑦ |④⑤⑥⑦|
①⑦⑪⑨ |⑧⑨⑩⑪|
⑫⑧③② |⑫⑬⑭⑮|
28
④⑩⑬⑮ |①②-③|
⑫⑥⑤⑦ |④⑤⑥⑦|
①⑦⑪⑨ |⑧⑨⑩⑪|
⑭⑧③② |⑫⑬⑭⑮|
29
④⑫⑪⑮ |①②-③|
⑩⑥③⑨ |④⑤⑥⑦|
①⑦⑬⑦ |⑧⑨⑩⑪|
⑭⑧⑤② |⑫⑬⑭⑮|
30
④⑩⑪⑮ |①②-③|
⑫⑥③⑨ |④⑤⑥⑦|
①⑦⑬⑦ |⑧⑨⑩⑪|
⑭⑧⑤② |⑫⑬⑭⑮|
30
④⑭⑨⑮ |①②-③|
⑩⑥②⑦ |④⑤⑥⑦|
①⑦⑪⑬ |⑧⑨⑩⑪|
⑫⑧③⑤ |⑫⑬⑭⑮|
31
□□□□ |①---|
□④□□ |----|
①□③□ |----|
□②①□ |②-③-④-|
32
①□⑥⑤ |①---②-|
③□⑧④ |③---|
④□⑦② |④-⑤-⑥-|
⑦□③① |⑦---⑧-|
33
□⑦⑥⑤ |①---②-|
□④⑧④ |③---|
□③⑦② |④-⑤-⑥-|
□①③① |⑦---⑧-|
34
①□⑥⑤ |①---②-|
③□⑧④ |③---|
④□⑦② |④-⑤-⑥-|
⑦□③① |⑦---⑧-|
35
□⑦⑥⑤ |①---②-|
□④⑧④ |③---|
□③⑦② |④-⑤-⑥-|
□①③① |⑦---⑧-|
36
⑤⑥□⑦ |①---②-|
④⑧□④ |③---|
②⑦□③ |④-⑤-⑥-|
①③□① |⑦---⑧-|
37
⑤⑥①□ |①---②-|
④⑧③□ |③---|
②⑦④□ |④-⑤-⑥-|
①③⑦□ |⑦---⑧-|
38
⑤⑥□⑦ |①---②-|
④⑧□④ |③---|
②⑦□③ |④-⑤-⑥-|
①③□① |⑦---⑧-|
39
□□□□ |①---|
□□□□ |----|
□□□□ |----|
①□□① |----|
40
①□<② |①-②-|
□□□□ |③-④⑤|
□□□□ |⑥-⑦-|
□□①□ |⑧-⑨-|

□④③□
□⑤>④
⑧⑥>⑦
⑨□□□

3□□□
□□□6
□□□8
□□□□
41
②>□① |①-②-|
□□□□ |③-④⑤|
□□□□ |⑥-⑦-|
□□□□ |⑧⑨⑩-|

□③④□
④<⑤□
⑦<⑥⑧
⑧④⑨⑩

□□□3
6□□□
8□□□
□□□□
42
①□<② |①-②-|
□□□□ |③-④⑤|
□□□□ |⑥-⑦-|
□□□□ |⑧-⑨-|

□④③□
□⑤>④
⑧⑥>⑦
⑨□□□

3□□□
□□□6
□□□8
□□□□
43
②>□① |①-②-|
□□□□ |③-④⑤|
□□□□ |⑥-⑦-|
□□□□ |⑧⑨⑩-|

□③④□
④<⑤□
⑦<⑥□
□⑧⑨⑩

□□□3
6□□□
8□□□
□□□□
44
①□<② |①-②-|
□□□□ |③-④⑤|
□□□□ |⑥-⑦-|
□□□□ |⑧-⑨-|

□④③□
□⑤>④
⑧⑥>⑦
⑨□□□

3□□□
□□□6
□□□8
□□□□
45
②>□① |①-②-|
□□□□ |③-④⑤|
□□□□ |⑥-⑦-|
□□□□ |⑧⑨⑩-|

□③④□
④<⑤□
⑦<⑥⑧
⑧④⑨⑩

□□□3
6□□□
8□□□
□□□□
46
①□<② |①-②-|
□□□□ |③-④⑤|
□□□□ |⑥-⑦-|
□□□□ |⑧-⑨-|

□④③□
□⑤>④
⑧⑥>⑦
⑨□□□

3□□□
□□□6
□□□8
□□□□
47
②>□① |①-②-|
□□□□ |③-④⑤|
□□□□ |⑥-⑦-|
□□□□ |⑧---|

□③④□
④<⑤□
⑦<⑥□
□⑧⑧□

□□□3
6□□□
8□□□
□□□□
48
①④③② |①-②③|
□□□□ |④-⑤⑥|
□□□□ |⑦⑧⑨⑩|
∧□□□ |⑪-⑫-|

□□□□
⑥□>⑤
□□□□
□□□□

□□□□
□□⑧□
□⑪>⑨
⑫□⑩□

4□□□
□□□7
□□□⑪
□□□□
49
②③④① |①-②③|
□□□□ |④-⑤⑥|
□□□□ |⑦⑧⑨⑩|
□□□∧ |⑪-⑫-|

□□□□
⑤<□⑥
□□□□
□□□□

□□□□
□⑧□□
⑨<⑪□
□⑩□⑫

□□□4
7□□□
⑪□□□
□□□□
50
①④③② |①-②③|
□□□□ |④-⑤⑥|
□□□□ |⑦⑧⑨⑩|
∧□□□ |⑪-⑫-|

□□□□
⑥□>⑤
□□□□
□□□□

□□□□
□□⑧□
□⑪>⑨
⑫□⑩□

4□□□
□□□7
□□□⑪
□□□□
51
②③④① |①-②③|
□□□□ |④-⑤⑥|
□□□□ |⑦⑧⑨⑩|
□□□∧ |⑪-⑫-|

□□□□
⑤<□⑥
□□□□
□□□□

□□□□
□⑧□□
⑨<⑪□
□⑩□⑫

□□□4
7□□□
⑪□□□
□□□□
52
①④③② |①-②③|
□□□□ |④-⑤⑥|
□□□□ |⑦⑧⑨⑩|
∧□□□ |⑪-⑫-|

□□□□
⑥□>⑤
□□□□
□□□□

□□□□
□□⑧□
□⑪>⑨
⑫□⑩□

4□□□
□□□7
□□□⑪
□□□□
53
②③④① |①-②③|
□□□□ |④-⑤⑥|
□□□□ |⑦⑧⑨⑩|
□□□∧ |⑪-⑫-|

□□□□
⑤<□⑥
□□□□
□□□□

□□□□
□⑧□□
⑨<⑪□
□⑩□⑫

□□□4
7□□□
⑪□□□
□□□□
54
①④③② |①-②③|
□□□□ |④-⑤⑥|
□□□□ |⑦⑧⑨⑩|
∧□□□ |⑪-⑫-|

□□□□
⑥□>⑤
□□□□
□□□□

□□□□
□□⑧□
□⑪>⑨
⑫□⑩□

4□□□
□□□7
□□□⑪
□□□□
55
⑥⑦⑦② |①---|
②③⑥□ |②--③|
④⑤□⑤ |④-⑤-|
□①④① |⑥-⑦-|
56
□□□□ |①-②-|
③□>③ |③-④⑤|
□□②□ |⑥-⑦-|
□①>① |⑧-⑨-|

□□⑧
□□⑧□
④□>⑥
⑦□⑤□

□⑨□□
□□□□
□□□□
□□□□

□□□□
□□□6
□□□8
□□□3
57
④⑦□□ |①-②-|
□③□□ |③-④-|
⑥□①□ |⑤-⑥-|
□②□⑤ |⑦---⑧⑨⑩⑪|

□□⑧□
□□⑨□
□□⑩□
□□⑪□

□□□5
□□□□
□□□□
□□□□
58
□□□□ |①-②-|
③<□③ |③-④⑤|
□②□□ |⑥-⑦-|
①<□□ |⑧-⑨-|

⑧□□<
□⑧□□
⑥<□④
□⑤□⑦

□□⑨□
□□□□
□□□□
□□□□

□□□□
6□□□
8□□□
3□□□
59
□□□④ |①-②-|
□□③□ |③-④-|
□①□⑥ |⑤-⑥-|
⑤□②□ |⑦⑧⑨⑩|

□⑩□□
□⑨□□
□⑧□□
□⑦□□

5□□□
□□□□
□□□□
□□□□
60
□□□□ |①-②-|
③□>③ |③-④⑤|
□□②□ |⑥-⑦-|
□□>① |⑧-⑨-|

□□⑧
□□⑧□
④□>⑥
⑦□⑤□

□⑨□□
□□□□
□□□□
□□□□

□□□□
□□□6
□□□8
□□□3
61
④□□□ |①-②-|
□③□□ |③-④-|
⑥□①□ |⑤-⑥-|
□②□⑤ |⑦⑧⑨-|

□□□□
□□⑦□
□□⑧□
□□⑨□

□□□5
□□□□
□□□□
□□□□
62
□□□□ |①-②-|
③<□③ |③-④⑤|
□②□□ |⑥-⑦-|
①<□□ |⑧-⑨-|

⑧□□<
□⑧□□
⑥<□④
□⑤□⑦

□□⑨□
□□□□
□□□□
□□□□

□□□□
6□□□
8□□□
3□□□
63
□□□④ |①-②-|
□□③□ |③-④-|
□①□□ |⑤-⑥-|
□□②□ |⑦-⑧-|

□⑦⑦□
□□□□
□⑧⑧⑥
⑤□□□

5□□□
□□□□
□□□□
□□□□
64
□□□□ |①---|
①□□① |----|
□□□□ |----|
□①①□ |----|
65
□□□□ |----|
□□□□ |----|
□①①□ |----|
□□□□ |--①-|
66
①①①① |①---|
①□□① |----|
□□□□ |----|
□□□□ |----|
67
□□□□ |----|
□①①□ |----|
①□□① |----|
□□□□ |①---|
68
①①①① |①---|
□□□□ |----|
□①①□ |----|
□□□□ |----|
69
①①①① |----|
□□□□ |----|
□□□□ |----|
□□□□ |①---|
70
□□□□ |①---|
①□□① |----|
□①①□ |----|
①□□① |----|
71
□□□□ |----|
□□□□ |----|
□□□□ |----|
□□□□ |----|
72
□⑤□① |①-②③|
□□④□ |④-⑤-|
□③□② |⑥⑦⑧-|
①□⑤□ |⑨-⑩⑪|

⑩□⑩□
⑦⑪□⑧
□□⑥□
□⑧□⑨
73
□□□⑤ |①-②③|
□□②□ |④-⑤-|
⑤③□① |⑥⑦⑧-|
①□④□ |⑨⑩⑪⑫|

□⑦□□
⑨⑫□⑨
□□⑥⑪
⑩⑧□⑧
74
①□①□ |①-②③|
□□④□ |④-⑤-|
⑤③⑤□ |⑥⑦⑧-|
□□②□ |⑨-⑩⑪|

⑩⑦⑩⑧
⑧⑪□□
□□□⑨
□□□⑥
75
⑩⑤⑨□ |①-②③|
⑥⑧⑤② |④-⑤-|
③□④□ |⑥---|
□⑥①⑦ |⑦⑧⑨⑩|
76
□⑤□① |①-②③|
□□④□ |④-⑤-|
□③□② |⑥⑦⑧-|
①□⑤□ |⑨-⑩⑪|

⑩□⑩□
⑦⑪□⑧
□□⑥□
□⑧□⑨
77
□□□⑤ |①-②③|
□□②□ |④-⑤-|
⑤③□① |⑥⑦⑧-|
①□④□ |⑨⑩⑪⑫|

□⑦□□
⑨⑫□⑨
□□⑥⑪
⑩⑧□⑧
78
①□①□ |①-②③|
□□④□ |④-⑤-|
⑤③⑤□ |⑥⑦⑧-|
□□②□ |⑨-⑩⑪|

⑩⑦⑩⑧
⑧⑪□□
□□□⑨
□□□⑥
79
□□□□ |①---|
⑤□②□ |②③④⑤|
③□④□ |⑥⑦⑧⑨|
□①①□ |⑩⑪⑫⑬|

□⑨⑫⑥
□⑬□⑧
□⑦□⑩
⑥⑪□□
80
①⑧⑩⑥ |①-②③|
⑤□②⑦ |④⑤⑥-|
③⑥⑨⑪ |⑦⑧⑨-|
⑨⑪④① |⑩-⑪-|
81
①⑩⑩⑥ |①-②③|
⑤⑪②⑨ |④⑤⑥-|
③⑥⑦⑫ |⑦⑧⑨-|
⑧⑫④① |⑩⑪⑫-|
82
①□□⑥ |①-②③|
⑤□②□ |④⑤⑥-|
③⑥□□ |⑦⑧⑨-|
□□④① |⑩-⑪-|

⑪□⑨□
□□□□
□□⑦⑩
⑧□□□
83
□④□⑥ |①②③④|
⑧①④② |⑤⑥⑦⑧|
③⑥⑦□ |⑨---|
⑧⑤②⑨ |----|
84
①□□⑥ |①-②③|
⑤□②□ |④⑤⑥-|
③⑥□① |⑦⑧⑨-|
□□④□ |⑩-⑪-|

□⑧⑩□
□□□⑦
□□⑨⑪
⑨⑪□□
85
①⑩⑩⑥ |①-②③|
⑤□②⑨ |④⑤⑥-|
③⑥⑦⑪ |⑦⑧⑨-|
⑧⑪④① |⑩-⑪-|
86
①□□⑦ |①②③④|
④⑧③□ |⑤⑥⑦⑧|
②⑥□□ |⑨⑩⑪⑫|
□□⑤① |⑬⑭⑮⑯|

⑭⑩⑪□
□□□⑬
⑯□⑨□
⑨⑫□⑮
87
□□□□ |①---|
①□<□ |----|
□>□① |②---|
□□□□ |----|

□□②□
□□∧□
□∨□□
□②□□
88
□□□□ |①---|
□□①□ |----|
□①□□ |----|
□□□□ |----|

□□1□
1□□□
□□□1
□1□□
最終更新:2025年01月03日 18:51