アットウィキロゴ
1
□□①□ |①-②-|
⑧□□□ |③-④-|
⑤⑥⑦□ |⑤-⑥-|
②③④□ |⑦-⑧-|

2
③④□⑤ |①-②-|
⑦①②□ |③-④-|
□□□⑥ |⑤-⑥-|
⑧□□□ |⑦-⑧-|

3
□□□□ |①-②-|
□①□⑧ |③-④-|
□⑦⑥⑤ |⑤-⑥-|
□④③② |⑦-⑧-|

4
□④⑤③ |①-②-|
⑩②①⑪ |③-④⑤|
⑥□□⑦ |⑥⑦⑧⑨|
⑫⑧⑨⑬ |⑩⑪⑫⑬|

5
□③□□ |①---|
□①②□ |--②-|
□②③□ |----|
□□□□ |③---|

6
②□□① |--①-|
□③□□ |----|
①□④□ |②-③-|
□□□⑤ |④-⑤-|

7
②□□② |----|
□□□□ |--①-|
□□□□ |----|
□①①□ |②---|

8
□□□□ |----|
□□□□ |----|
□□□□ |----|
□□□□ |----|

9
□③②① |①-②-③-|
□⑥⑤④ |④-⑤-⑥-|
⑦⑪⑩□ |⑦-⑧-⑨-|
⑨□⑫⑧ |⑩-⑪-⑫-|

10
①②③⑨ |①-②-③-|
④⑤⑥□ |④-⑤-⑥-|
⑧⑩⑪⑦ |⑦-⑧-⑨-|
⑫□□□ |⑩-⑪-⑫-|

11
①②③□ |①-②-③-|
□④⑤⑥ |④-⑤-⑥-|
⑨□⑩⑧ |⑦-⑧-⑨-|
⑪⑦□⑫ |⑩-⑪-⑫-|

12
□③②① |①-②-③-|
⑥⑤④⑨ |④-⑤-⑥-|
⑧□□□ |⑦-⑧-⑨-|
⑩⑫⑦⑪ |⑩-⑪-⑫-|

13
②⑥⑤① |①②③④|
⑫⑧⑦⑪ |⑤⑥⑦⑧|
⑩④③⑨ |⑨⑩⑪⑫|
⑯⑭⑬⑮ |⑬⑭⑮⑯|

14
②⑥⑤① |①②③④|
⑫⑪⑩⑨ |⑤⑥⑦⑧|
⑧④③⑦ |⑨⑩⑪⑫|
⑯⑮⑭⑬ |⑬⑭⑮⑯|

15
②⑥⑤① |①②③④|
⑩⑫⑪⑨ |⑤⑥⑦⑧|
⑧④③⑦ |⑨⑩⑪⑫|
□□⑬□ |⑬-⑭-|

□□□⑭
□□□□
□□□□
⑭□□□

16
①④□□ |--①-|
□□□□ |②-③-|
③①②② |--④-|
□③□□ |----|

17
⑥□□⑥ |①-②-|
□□④① |③-④-|
⑤③□⑤ |⑤-⑥-|
②⑦⑦□ |--⑦-|

18
□□□□ |--①-|
□③⑥① |②-③-|
□⑤②□ |--④-|
□□□④ |⑤-⑥-|

19
□③⑤□ |①-②-|
□⑥□② |③-④-|
□□④④ |--⑤-|
①①□□ |⑥-⑦-|

□□□□
□□□□
□□□□
□⑦⑦□

20
②④□② |--①-|
□□□□ |--②-|
①□③□ |--③-|
□□□□ |④---|

21
⑤□⑥⑤ |①-②-|
□⑦③□ |③-④-|
④②⑧⑧ |⑤-⑥-|
□□①① |⑦-⑧-|

22
□□□□ |--①-|
②□⑥□ |②-③-|
□⑤□□ |--④-|
①③③④ |⑤-⑥-|

23
□⑦③⑦ |①-②-|
□②□⑤ |③-④-|
①⑥□① |--⑤-|
④□④□ |⑥-⑦-|

24
⑤⑦④□ |--①②|
□③□⑥ |③④⑤-|
⑥□②□ |--⑥-|
□①⑦⑤ |--⑦-|

25
⑤□□⑤ |--①-|
□□③□ |②-③-|
④②□④ |④-⑤-|
①⑥⑥□ |--⑥-|

26
□□□□ |--①-|
□③⑥① |②-③-|
□⑤②□ |--④-|
□□□④ |⑤-⑥-|

27
□③⑤□ |①-②-|
□⑥□② |③-④-|
□□④④ |--⑤-|
①①□□ |⑥-⑦-|

□□□□
□□□□
□□□□
□⑦⑦□

28
②④□② |--①-|
□□⑥⑤ |--②-|
①□③□ |--③-|
□□□□ |④-⑤⑥|

29
⑦⑥②□ |①-②-|
③①□⑦ |③-④-|
□□□□ |--⑤-|
④□⑤④ |⑥-⑦-|

30
□□□⑥ |--①-|
①⑤□□ |②-③-|
③□□① |--④-|
□②④③ |⑤-⑥-|

31
⑤③□□ |①-②-|
①⑥□① |③-④-|
□□②⑦ |--⑤-|
④□⑦④ |⑥-⑦-|

32
□③②① |--①②|
□□□□ |③---|
□□□□ |----|
□□□□ |----|

33
□□⑥□ |①---|
①□□① |--②③|
□⑤□□ |④---|
②③④□ |⑤-⑥-|

34
□□□□ |--①-|
□□⑥① |②-③-|
□⑤②□ |--④-|
④□□③ |⑤-⑥-|

35
①⑥③① |①-②-|
⑦②□⑦ |③-④-|
④□□④ |--⑤-|
□□⑤□ |⑥-⑦-|

36
③□①□ |--①-|
④⑤□□ |②-③-|
□②□□ |----|
□□□③ |--④⑤|

37
⑥□⑦③ |①-②-|
□□①□ |③-④-|
④□①⑦ |--⑤-|
②⑤④□ |⑥-⑦-|

38
□②⑥□ |--①-|
⑤□□□ |②-③-|
③□□□ |--④-|
□④③① |⑤-⑥-|

39
①③□③ |①---|
④□④□ |②-③-|
□⑤□⑤ |--④-|
□□②① |--⑤-|

40
⑤⑦④□ |--①②|
□③□⑥ |③④⑤-|
⑥□②□ |--⑥-|
□①⑦⑤ |--⑦-|

41
⑤□□⑤ |--①-|
□□③□ |②-③-|
④②□④ |④-⑤-|
①⑥⑥□ |--⑥-|

42
□⑨⑩⑪ |--①②|
⑥⑦⑧① |③④⑤-|
□③②□ |--⑥⑦|
④□□⑤ |⑧⑨⑩⑪|

43
③□□□ |①-②-|
⑧⑦⑥⑤ |③-④-|
□□□② |---⑤⑥⑦|
④①①④ |⑧-⑨-|

□□□□
□□□□
□□□□
□⑨⑨□

44
②□②□ |--①-|
⑤⑥□□ |②-③-|
□①④① |--④-|
③□□③ |--⑤⑥|

45
④②□③ |①-②-|
□□①□ |③-④-|
□④⑥□ |--⑤-|
□⑤①□ |⑥-⑦-|

□□□□
□□⑦□
□□□□
⑦□□⑦

46
③①③⑥ |--①-|
⑤⑤□① |②-③-|
①②□③ |--④-|
□□④□ |⑤-⑥-|

47
⑥□③□ |①-②-|
□⑦□① |③-④-|
①②④⑤ |--⑤-|
④①□④ |⑥-⑦-|

48
□⑥□② |--①-|
①□□□ |②-③-|
□□⑤□ |--④-|
④□③□ |⑤-⑥-|

49
□□③⑥ |①-②-|
④□①④ |③-④-|
①②□□ |--⑤-|
⑤④□① |⑥-⑦-|

□□□□
□□□□
⑦□□⑦
□□□□

50
□⑦□⑨ |--①②|
⑦①②⑧ |③④⑤⑥|
□③④□ |⑦-⑧-|
⑨⑤⑥⑧ |--⑨-|

51
⑦⑧□□ |--①②|
④⑤□⑨ |③-④⑤|
①②□③ |⑥-⑦⑧|
⑩⑪⑥□ |⑨-⑩⑪|

52
⑧⑨⑪⑦ |①-②③|
⑤⑥□⑩ |④-⑤⑥|
②③①□ |⑦-⑧⑨|
□⑪□④ |⑩-⑪-|

53
□□⑪⑩ |--①②|
□⑥⑧⑦ |③-④⑤|
③□⑤④ |⑥-⑦⑧|
□⑨②① |⑨-⑩⑪|

54
①⑩□□ |①-②③|
□□⑨⑧ |④-⑤⑥|
④□⑥⑤ |⑦-⑧⑨|
⑦□③② |⑩-⑪-|

⑪□□⑪
□□□□
□□□□
□□□□

55
⑪⑧③⑨ |--①②|
⑩⑦□□ |③-④⑤|
⑤②□⑥ |⑥-⑦⑧|
④①□□ |⑨-⑩⑪|

56
⑪⑨⑦⑪ |①-②③|
□⑧①⑩ |④-⑤⑥|
⑥③□□ |⑦-⑧⑨|
⑤②□④ |⑩-⑪-|

57
□□⑧⑪ |--①②|
⑥□⑦⑩ |③-④⑤|
⑨□②⑤ |⑥-⑦⑧|
③□①④ |⑨-⑩⑪|

58
⑦⑧⑨□ |①-②③|
⑧⑨□□ |④-⑤⑥|
⑨①③⑥ |⑦-⑧-|
□④②⑤ |⑨-⑩-|

□□□⑩
□□⑩□
□⑩□□
⑩□□□

59
□□⑧⑪ |--①②|
⑥□⑩② |③-④⑤|
⑨□⑤⑦ |⑥-⑦⑧|
□③①④ |⑨-⑩⑪|

60
①□⑨⑪ |①-②③|
□⑦□③ |④-⑤⑥|
⑩④⑥⑧ |⑦-⑧⑨|
⑪□②⑤ |⑩-⑪-|

61
⑤②□⑨ |--①②|
①⑪□⑥ |③-④⑤|
⑧④□□ |⑥-⑦⑧|
⑩⑦③□ |⑨-⑩⑪|

62
⑥③□□ |①-②③|
②□⑦□ |④-⑤⑥|
⑨⑤④① |⑦-⑧⑨|
□⑧□⑩ |⑩-⑪-|

□□□□
□□□□
□□□⑪
⑪□□□

63
⑨□⑤⑧ |--①②|
③□⑦② |③-④⑤|
□□④⑪ |⑥-⑦⑧|
□⑥①⑩ |⑨-⑩⑪|

64
⑩④⑥⑨ |①-②③|
⑪□⑧③ |④-⑤⑥|
□□⑤⑪ |⑦-⑧⑨|
①⑦②□ |⑩-⑪-|

65
⑧②□□ |--①②|
⑩①□③ |③-④⑤|
⑦⑪⑨□ |⑥-⑦⑧|
④⑤□⑥ |⑨-⑩⑪|

66
⑦③②① |①-②-|
□□③② |③-④⑤|
□□⑦③ |⑥--⑦|
④⑤⑥□ |--⑧-|

□□□⑧
□□□□
□⑧□□
□□□□

67
□④④□ |①-②-|
①□③① |③-④-|
②□□⑥ |--⑤-|
⑤□□□ |⑥-⑦-|

□□□□
⑦□□⑦
□□□□
□□□□

68
③⑤⑤③ |--①-|
□□□□ |②-③-|
④②□④ |--④-|
□□①□ |⑤---|

69
□□□④ |①-②-|
⑤□⑥□ |③-④-|
□②②⑤ |--⑤-|
④①①③ |⑥-⑦-|

□□⑦□
□□□□
□□□□
□⑦□□

70
③④□④ |--①-|
□②□③ |②-③-|
①⑤②⑤ |④-⑤-|
⑥⑦⑧① |⑥⑦⑧-|

71
□③③□ |--①-|
⑥□②⑥ |②-③-|
①□□⑤ |--④-|
④□□□ |⑤-⑥-|

72
③⑤⑤③ |--①-|
□□□□ |②-③-|
④②□④ |--④-|
□□①□ |⑤---|

73
□□□④ |①-②-|
⑤□⑥□ |③-④-|
□②②⑤ |--⑤-|
④①①③ |⑥-⑦-|

□□⑦□
□□□□
□□□□
□⑦□□

74
③④□④ |--①-|
□②□③ |②-③-|
①⑤②⑤ |④-⑤-|
⑥⑦⑧① |⑥⑦⑧-|

75
□□□□ |----|
①□□① |----|
①□□① |----|
□□□□ |--①-|

76
□③□□ |--①-|
□②③□ |②-③-|
□①②□ |----|
□□①□ |----|

77
②□③② |①---|
④⑥⑥□ |②---|
□□□□ |③-④-|
□①①⑤ |⑤-⑥-|

78
②□□② |--①-|
⑥□□⑥ |②-③-|
③⑤□③ |--④-|
①□④□ |⑤-⑥-|

79
④⑥□④ |--①-|
□③□□ |②-③-|
⑤□②⑤ |④-⑤-|
①□⑥□ |--⑥-|

80
□□⑤□ |--①-|
□②②□ |--②-|
□④□□ |--③-|
①□□③ |④-⑤-|

81
②□□② |①---|
□□⑤□ |②---|
□④□□ |③-④-|
③①①□ |⑤-⑥-|

□□□□
□□□□
□□□□
□⑥⑥□

82
□①③□ |--①-|
□□⑥③ |②-③-|
②⑤□□ |--④-|
□□□④ |⑤-⑥-|

83
⑧⑦⑥⑤ |①-②-|
②□□③ |③-④-|
④□□□ |---⑤⑥⑦|
①④①□ |⑧-⑨-|

□□□□
□□□□
□□□⑨
□□⑨□

84
□□□□ |--①②|
□①⑥□ |③---|
□⑤②□ |--④-|
□③□④ |⑤-⑥-|

85
④⑤⑥⑦ |①②③④|
③⑭⑮⑧ |⑤⑥⑦⑧|
②⑬⑯⑨ |⑨⑩⑪⑫|
①⑫⑪⑩ |⑬⑭⑮⑯|

86
②□□② |--①-|
⑥□□⑥ |②-③-|
③⑤□③ |--④-|
①□④□ |⑤-⑥-|

87
④⑥□④ |--①-|
□③□□ |②-③-|
⑤□②⑤ |④-⑤-|
①□⑥□ |--⑥-|

88
□□⑤□ |--①-|
□②②□ |--②-|
□④□□ |--③-|
①□□③ |④-⑤-|

89
②□□② |①---|
□□⑤□ |②---|
□④□□ |③-④-|
③①①③ |⑤-⑥-|

□□□□
□□□□
□□□□
□⑥⑥□

90
①□③⑥ |--①-|
⑤□□① |②-③-|
□□②④ |--④-|
③□□□ |⑤-⑥-|

91
⑥□③□ |①-②-|
□⑦□① |③-④-|
①②④⑤ |--⑤-|
④①□④ |⑥-⑦-|

92
□⑥□② |--①-|
①□□□ |②-③-|
□□⑤□ |--④-|
④□③□ |⑤-⑥-|

93
□□③⑥ |①-②-|
④□①④ |③-④-|
①②□□ |--⑤-|
⑤④□① |⑥-⑦-|

□□□□
□□□□
⑦□□⑦
□□□□

94
⑦⑧⑨⑩ |--①②|
□①②⑪ |③④⑤⑥|
□③④⑫ |⑦⑧⑨⑩|
□⑤⑥⑬ |⑪⑫⑬-|

95
⑤□□⑤ |--①-|
□⑥③□ |②-③-|
⑦②□⑦ |④-⑤-|
①④④□ |⑥-⑦-|

96
□⑨⑩⑪ |--①②|
⑥⑦⑧① |③④⑤-|
□③②□ |--⑥⑦|
④□□⑤ |⑧⑨⑩⑪|

97
③□□□ |①-②-|
⑧⑦⑥⑤ |③-④-|
□□□② |---⑤⑥⑦|
④①①④ |⑧-⑨-|

□□□□
□□□□
□□□□
□⑨⑨□

98
②□②□ |--①-|
⑥⑦□⑤ |②-③-|
□①④① |--④-|
③□□③ |⑤-⑥⑦|

99
④②□③ |①-②-|
□□①□ |③-④-|
□④⑥□ |--⑤-|
□⑤①□ |⑥-⑦-|

□□□□
□□⑦□
□□□□
⑦□□⑦

100
③①③⑥ |--①-|
⑤⑤□① |②-③-|
①②□③ |--④-|
□□④□ |⑤-⑥-|

101
⑤①④□ |①-②-|
⑥□③⑤ |③-④-|
①□□④ |--⑤-|
④②□① |⑥-⑦-|

□□□□
□□□□
⑦□□□
□□□⑦

102
⑩⑧⑦⑨ |--①②|
⑧⑥⑤⑩ |③④⑤⑥|
⑩④③⑦ |⑦-⑧-|
□②①⑩ |⑨-⑩-|
最終更新:2025年01月03日 18:52