アットウィキロゴ
1
②⑦①□ |①-②③|
⑧④⑩⑤ |-④⑤⑥|
□⑨□□ |-⑦⑧⑨|
□①⑥③ |⑩-⑪⑫|

□□□□
□□□□
□□□□
□⑪□⑫

2
□⑥⑤④ |①②③-|
⑦②□③ |④⑤⑥⑦|
□⑧①□ |⑧⑨--|
□□⑨□ |----|

3
⑦□⑦□ |①-②-|
□①①⑧ |③④⑤⑥|
③⑨□⑥ |⑦-⑧-|
⑤②④② |⑨⑩⑪⑫|

□⑫□⑫
□□⑩□
□□□□
□⑪□□

4
⑦⑫⑦⑫ |-①-②|
⑪③⑧⑥ |③④⑤⑥|
①⑨①④ |⑦-⑧⑨|
⑤□②⑩ |⑩⑪⑫-|

5
⑥□③□ |①-②-|
⑩□⑦⑨ |③④⑤⑥|
①⑧①⑤ |⑦⑧⑨⑩|
②④②□ |⑪⑫⑬⑭|

□□□□
□⑫□□
⑭□⑪□
□□⑬□

6
④①①② |①--②|
□⑥⑤□ |--③-|
□⑧⑦③ |-④--|
④③□② |⑤⑥⑦⑧|

7
⑦①⑦① |①-②-|
□□⑩⑧ |③④⑤⑥|
③⑨□⑥ |⑦-⑧-|
⑤②④② |⑨⑩⑪⑫|

□⑫□⑫
□□□□
□□□□
□⑪□□

8
⑨□⑫⑩ |-①-②|
⑬③⑧⑥ |③④⑤⑥|
①⑦①④ |⑦⑧⑨⑩|
⑤⑪②□ |⑪⑫⑬-|

9
⑧④⑨□ |①-②-|
⑫⑩⑤⑪ |③④⑤⑥|
①⑥①③ |⑦⑧⑨⑩|
②□②⑦ |⑪⑫⑬⑭|

□□□□
□□□□
□□□□
□⑭⑬□

10
④②③① |①--②|
□□⑤□ |--③-|
②④③① |-④--|
□□□⑤ |⑤---|

11
⑥⑧□⑩ |①-②-|
②⑤⑨② |③④⑤⑥|
⑥□④⑩ |-⑦⑧⑨|
③①①⑦ |⑩-⑪⑫|

□□⑫□
□□□□
□□□□
□⑪□□

12
⑦⑪□⑩ |①②-③|
②④⑫⑥ |④⑤⑥-|
⑨①⑤⑧ |⑦⑧⑨⑩|
②□③⑥ |⑪⑫⑬⑭|

□□⑭□
□□□□
□⑬□□
□□□□

13
⑥⑧□⑩ |①-②-|
②⑤⑨② |③④⑤⑥|
⑥□④⑩ |-⑦⑧⑨|
③①①⑦ |⑩-⑪⑫|

□□⑫□
□□□□
□□□□
□⑪□□

14
⑦⑪□⑩ |①②-③|
②④⑫⑥ |④⑤⑥-|
⑨①⑤⑧ |⑦⑧⑨⑩|
②□③⑥ |⑪⑫⑬⑭|

□□⑭□
□□□□
□⑬□□
□□□□

15
□□□□ |①-②-|
①□□② |③④⑤⑥|
|□□□ |-⑦⑧⑨|
∧□□□ |⑩-⑪⑫|

⑪⑫□□
□□□□
⑦⑧⑨⑩
③④⑤⑥

16
□□①② |①②-③|
③⑧⑦□ |④⑤⑥-|
⑩□□⑨ |⑦⑧⑨⑩|
③④⑤⑥ |⑪⑫⑬⑭|

⑭□⑪□
□□□□
□⑫⑬□
□□□□

17
□②□① |①-②-|
③④⑤| |③④⑤⑥|
□□□∧ |-⑦⑧⑨|
□□□□ |⑩-⑪⑫|

□□□□
□□□⑥
⑪⑫□□
⑦⑧⑨⑩

18
⑪⑦⑩③ |①②-③|
③④⑤⑥ |④⑤⑥-|
⑨□①② |⑦⑧⑨⑩|
□⑬⑧⑫ |⑪⑫⑬⑭|

□□□⑭
□□□□
□□□□
□□□□

19
⑨⑤⑯⑭ |①②③④|
⑪①⑩④ |⑤⑥⑦⑧|
⑦③②⑧ |⑨⑩⑪⑫|
⑬⑮⑥⑫ |⑬⑭⑮⑯|

20
⑦①□⑪ |①②③④|
⑧⑤⑩② |⑤--⑥--⑦-⑧-⑨-|
⑨③④⑥ |⑩-⑪-|
⑩□⑪⑩ |⑫-⑬-|

□⑫⑬□
□□□⑬
□□□□
□⑫□□

21
⑥④⑥③ |①--②|
⑦②④□ |--③-|
⑧①①□ |④-⑤-|
⑨□⑤□ |⑥⑦⑧⑨--|

22
⑪⑦⑫② |①--②③④|
□①⑧③ |⑤-⑥-|
⑨⑥⑥④ |⑦⑧⑨⑩|
□⑬⑩⑤ |⑪⑫⑬⑭|

□□□□
□□□□
□□□⑭  
□□□□

23
⑤□□⑥ |--①-|
⑤④③② |---②③④|
⑤①①⑧ |⑤--⑥|
⑨⑦□□ |⑦⑧⑨⑩|

□□□□
□□□□
□□⑩□
□□□□

24
⑥①⑤⑦ |①--②|
③④□⑤ |--③-|
⑧⑥⑦⑨ |--④⑤|
④⑧⑨② |⑥⑦⑧⑨|

25
□①③□ |--①-|
⑥③①□ |-②--|
□⑥□⑤ |③--④|
④□⑤② |--⑤⑥|

26
⑤②⑤③ |①②③-|
□□①① |-④--|
②□③⑥ |⑤---|
⑥④□④ |⑥--⑦⑧⑨|

□□□□
□⑨⑧⑦
□□□□
□□□□

27
④②④② |①---|
①□□□ |②--③|
□□□□ |--④-|
⑤③⑤③ |-⑤--|

28
⑯⑪⑩⑤ |①②③④|
⑮②③⑥ |⑤⑥⑦⑧|
⑭④①⑦ |⑨⑩⑪⑫|
⑬⑨⑫⑧ |⑬⑭⑮⑯|

29
□□□□ |①---|
□>①□ |②---|
□①<□ |③④⑤⑥|
□□□□ |⑦⑧⑨⑩|

□⑩□□
⑨⑦②⑥
□②⑤□
③④⑧□

30
⑫□⑩④ |①②③④|
□⑪①⑨ |⑤⑥⑦⑧|
③⑥⑦② |⑨⑩⑪⑫|
⑤□□⑧ |⑬⑭⑮⑯|

□□□□
⑭□⑬□
□□□⑮
□□⑯□

31
⑧⑦⑥⑤ |①②③④|
⑩⑬⑫□ |⑤⑥⑦⑧|
②□③⑪ |⑨⑩⑪⑫|
④①□⑨ |⑬⑭⑮⑯|

□□□□
□□□□
⑭⑯□□
□□⑮□

32
④③②① |①②③④|
⑨⑩⑪⑤ |⑤⑥⑦⑧|
⑬⑭⑥⑫ |⑨⑩⑪⑫|
⑧⑦⑮⑯ |⑬⑭⑮⑯|

33
①①□□ |①---|
||□□ |----|
||□□ |----|
∧∧□□ |----|

34
①①∨∨ |----|
□□|| |①---|
□□|| |②---|
□□②② |③--④⑤⑥|

□□□④
□□⑤□
□⑥□□
□□③③

35
□□□□ |①---|
□□□□ |②---|
□□□□ |--③-|
①―<□ |--④-|

③□③④
□④□□
④□□□

②③④③

36
□□□□ |--①-|
①□①□ |----|
□①□① |----|
□□□□ |----|

37
⑧⑪□④ |①②③④|
⑬③□⑥ |⑤⑥⑦⑧|
①⑨②⑩ |⑨⑩⑪⑫|
⑦⑤⑫□ |⑬⑭⑮⑯|

□□□⑯
□□□□
⑮□⑭□
□□□□

38
⑤⑬⑫□ |①②③④|
⑪⑦②④ |⑤⑥⑦⑧|
□⑨⑩⑧ |⑨⑩⑪⑫|
⑥③□① |⑬⑭⑮⑯|

□□□□
□□⑭□
⑮□□□
□□□⑯

39
①□□□ |①②③④|
⑨③□⑧ |⑤⑥⑦⑧|
⑪⑦⑩④ |⑨⑩⑪⑫|
②⑤⑥⑫ |⑬⑭⑮⑯|

⑬⑮⑭□
□□□□
□□□⑯
□□□□

40
⑨―<④ |①②③④|
□⑤⑥□ |⑤⑥⑦⑧|
□③⑧□ |⑨-⑩-|
①⑦②□ |⑪⑫⑬⑭⑮⑯|

⑩□□□
⑭□□⑪
⑮□□⑫
⑯□□⑬

41
□①①□ |①---|
□□□□ |----|
□□□□ |----|
□□□□ |--②-|

③④②④ |----|
□□④□ |③---|
②□③② |④---|
④③②③

42
②□①□ |①-----|
――① |---②③④|
□①□□ |⑤-----|
□□①□ |⑥⑦⑧⑨--|

□⑥⑩□ |---⑩⑪⑫|
③⑦⑪⑬ |⑬-----|
④⑧⑫□ |⑭--⑮--|
⑤⑨⑬□

□□□□
□□□□
⑭□□⑮
⑭□□⑮

43
②③④⑤ |①-----|
⑥①□□ |---②③④|
⑧⑨⑩□ |⑤-⑥-⑦-|
⑪①⑦□ |⑧⑨⑩-⑪-|

⑯⑰⑱22 |⑫⑬⑭-⑮-|
⑲⑭⑬⑫ |⑯⑰⑱-⑲-|
□2122⑮ |⑳2122-|
□□□⑳

44
⑤⑥□□ |①---|
⑤④③② |---②③④|
⑤□□□ |⑤---|
①①□⑦ |⑥-⑦-|

⑬⑫⑪⑩ |⑧-⑨-|
⑫⑪⑩⑨ |⑩-⑪-|
⑪⑩⑨⑧ |⑫-⑬-|
⑩⑨⑧□

45
□□□□ |----|
□□□□ |----|
□□□□ |----|
□□□□ |----|

□□□□ |----|
□□□□ |----|
□□□□ |----|
□□□□

46
①⑤③⑤ |①-②-|
⑥④⑥□ |③-④-|
③□④② |⑤-⑥-|
②①①⑤ |⑦-⑧-|

⑧⑪⑨□ |⑨-⑩-|
□⑩⑫⑦ |⑪-⑫-|
⑩⑨⑫⑨ |⑬-⑭-|
⑧□⑦⑪

□□□⑭
⑬□□⑭
□□□□
□⑬⑬□

47
①③⑤□ |①-②-|
⑤②④⑥ |③-④-|
③①④② |⑤-⑥-|
①⑥⑤□ |⑦-⑧-|

⑧⑩⑫⑨ |⑨-⑩-|
⑪⑨□□ |⑪-⑫-|
⑩⑦⑪⑨ |⑬-⑭-|
⑧⑫□⑦

□□□□
□□⑭⑬
□⑬□□
⑭□⑬□

48
①――< |①---|
□□□□ |--②③|
□□□□ |④-⑤-|
□□□① |⑥-⑦-|

④□②□ |⑧---|
□③□⑤ |----|
④⑥⑥□ |⑨-⑩-|
□□⑤□

――⑦
□□□□
□□□□
⑦□□□

□⑧□⑨
⑨⑩⑧□
□□⑩□
□⑨□□

49
①⑤⑤□ |①-②-|
□□□④ |③-④-|
□③□□ |⑤---|
②⑤⑤① |⑥⑦⑧-|

⑥⑫□⑩ |⑨-⑩-|
⑦⑩⑧⑬ |⑪-⑫-|
⑧⑨⑩⑬ |⑬-⑭-|
⑪⑬□⑧

□□□□
□□□□
⑭□□□
□□□□

50
①⑤①② |①-----|
⑥③④⑦ |②-③-④-|
□□□□ |⑤-⑥-⑦-|
②□⑤① |⑧-⑨---|

⑨⑭⑨⑩ |⑩-⑪-⑫-|
⑯⑰⑬⑮ |⑬-⑭-⑮-|
⑬⑪□⑫ |⑯-⑰-⑱-|
⑩⑧⑯⑧

□□⑱□
□□□□
□□□□
□□□□

51
□□□① |①-----|
⑤□③⑤ |②-③-④-|
⑦④□② |⑤-⑥-⑦-|
②□⑥① |⑧-⑨---|

⑨⑯⑨⑩ |⑩-⑪-⑫-|
□⑫⑭⑬ |⑬-⑭-⑮-|
⑮⑬⑪⑯ |⑯-⑰-⑱-|
⑩⑧⑰⑧

□□□□
□□□□
□□□□
□⑱□□

52
①□③□ |①-----|
②⑤□⑦ |②-③-④-|
⑤④⑥□ |⑤-⑥-⑦-|
①□□② |⑧-⑨---|

□⑨⑫⑨ |⑩-⑪-⑫-|
⑩⑭□⑮ |⑬-⑭-⑮-|
□□□⑬ |⑯-⑰-⑱-|
⑧⑪⑧□

□□□□
□□⑱□
⑯⑰□□
⑯□□□

53
②⑥②① |①-----|
□③□⑥ |②-③-④-|
⑥□④□ |⑤---⑥-|
□⑤⑤① |--⑦---|

⑫⑯⑨⑦ |⑧⑨⑩⑪|
□⑩⑬□ |⑫⑬⑭⑮|
□⑦□⑪ |⑯⑰⑱⑲|
⑧⑭⑮⑦

□□□⑰
⑱□□□
□□□□
□□□⑲

54
□□□□ |①---|
□⑤④③ |②-③④|
□①□□ |⑤---|
②□□□ |--|

55
⑧⑦⑩□ |①②③④|
④⑪⑥⑨ |⑤⑥⑦⑧|
⑫③②⑤ |⑨⑩⑪⑫|
□⑬⑭① |⑬⑭|

56
□②□④ |①---|
⑤□□⑥ |②-③-|
□□□□ |④-⑤-|
③□□① |⑥-|

57
①③①④ |①--②|
□②②□ |--③-|
②④③② |④---|
③①④① |--|

58
①⑩③□ |①②③④|
⑪②⑨④ |⑤⑥⑦⑧|
□⑭⑦⑧ |⑨⑩⑪⑫|
⑤⑥⑬⑫ |⑬⑭|

59
□⑩③④ |①②③④|
⑪②⑨⑧ |⑤⑥⑦⑧|
①⑭⑦⑫ |⑨⑩⑪⑫|
⑤⑥⑬□ |⑬⑭|

60
⑤□①② |①---|
□⑨⑥□ |----|
□⑦⑧□ |②③④⑤|
③□④□ |⑥⑦⑧⑨|

61
⑤③②⑤ |①--②|
①□□① |--③-|
①④④① |--④-|
③②③② |⑤--⑥⑦⑧|

□□□□
□⑧⑦⑥
□□□□
□□□□

62
⑦□⑦□ |①-②-|
①□⑩⑧ |③④⑤⑥|
③⑨□⑥ |⑦-⑧-|
⑤②④② |⑨⑩⑪⑫|

□⑫□⑫
□□□□
□□□□
□⑪□□

63
⑦⑫⑦⑫ |-①-②|
⑪③⑧⑥ |③④⑤⑥|
①⑨①④ |⑦-⑧⑨|
⑤□②⑩ |⑩⑪⑫-|

64
⑥□③□ |①-②-|
⑩□⑦⑨ |③④⑤⑥|
①⑧①⑤ |⑦⑧⑨⑩|
②④②□ |⑪⑫⑬⑭|

□□□□
□⑫□□
⑭□⑪□
□□⑬□

65
④①①② |①--②|
□⑥⑤□ |--③-|
□⑧⑦③ |-④--|
④③□② |⑤⑥⑦⑧|

66
⑦①⑦① |①-②-|
□□⑩⑧ |③④⑤⑥|
③⑨□⑥ |⑦-⑧-|
⑤②④② |⑨⑩⑪⑫|

□⑫□⑫
□□□□
□□□□
□⑪□□

67
⑨□⑫⑩ |-①-②|
⑬③⑧⑥ |③④⑤⑥|
①⑦①④ |⑦⑧⑨⑩|
⑤⑪②□ |⑪⑫⑬-|

68
⑧④⑨□ |①-②-|
⑫⑩⑤⑪ |③④⑤⑥|
①⑥①③ |⑦⑧⑨⑩|
②□②⑦ |⑪⑫⑬-|

□□□□
□□□□
□□□□
□□⑬□

69
⑦③⑤① |①-②③|
□□□□ |-④⑤-|
③⑦⑤① |⑥⑦-⑧|
⑥②⑧④ |⑨---|

□□□⑨
□□□□
□□□⑨
□□□□

70
⑫⑤⑦□ |①②③④|
②④⑩□ |⑤⑥⑦⑧|
③□⑥⑨ |⑨⑩⑪⑫|
⑪①□⑧ |⑬⑭⑮⑯|

□□□□
⑭□□□
⑮□□□
□⑬⑯□

71
⑨⑥③① |①②③④|
□⑧⑪④ |⑤⑥⑦⑧|
□⑤②⑬ |⑨⑩⑪⑫|
⑦□⑫⑩ |⑬⑭--|

□□□⑭
□□□□
□□□□
□□□□

72
⑥⑤④□ |①②③④|
⑦□⑧③ |⑤⑥-⑦|
□⑨②□ |⑧⑨⑩⑪|
⑩①⑪□ |-⑫⑬⑭|

□□⑭□
□⑬□□
□□⑫□
□□□□

73
□⑦□⑥ |①-②③|
③□④① |④-⑤⑥|
□□□□ |-⑦--|
⑤②⑦□ |----|
最終更新:2025年01月03日 18:52