Amazing Bomberman / TESSEI TOJO
BPM:175
Notes:695
1
□□④□ |①---|
□□□③ |②---|
□⑤②□ |③---|
□□□① |④-⑤-|
2
□□□□ |----|
□□□□ |----|
□□□□ |----|
□□□□ |----|
3
□④□□ |①---|
③□□□ |②---|
□②⑤□ |③---|
①□□□ |④-⑤-|
4
□□□③ |----|
□□②□ |①---|
□□□① |②---|
□□□□ |③---|
5
□□④□ |①---|
□□□③ |②---|
□⑤②□ |③---|
□□□① |④-⑤-|
6
□□□□ |----|
□□□□ |----|
□□□□ |----|
□□□□ |----|
7
□④□□ |①---|
③□□□ |②---|
□②⑤□ |③---|
①□□□ |④-⑤-|
8
□□□③ |----|
□□②□ |①---|
□□□① |②---|
□□□□ |③---|
9
□□④□ |①---|
□□□③ |②---|
□□②□ |③---|
□□□① |④---|
10
④□□□ |----|
□②□□ |----|
③□□□ |①-②-|
□①□□ |③-④-|
11
□□④□ |①---|
□□□③ |②---|
□□②□ |③---|
□□□① |④---|
12
⑦③□□ |--①-|
②⑤□□ |②-③-|
⑥①□□ |④-⑤-|
□④□□ |⑥-⑦-|
13
⑧④⑦□ |①-②-|
②⑥□⑤ |③-④-|
⑦③③□ |⑤-⑥-|
①⑤□① |⑦-⑧-|
14
⑧④□□ |①-②-|
②⑥□□ |③-④-|
⑦③□□ |⑤-⑥-|
①⑤□□ |⑦-⑧-|
15
⑧④⑦□ |①-②-|
③⑦□⑤ |③-④-|
⑥②③□ |⑤-⑥-|
①⑤□① |⑦-⑧-|
16
□□⑤④ |①---|
□□①⑥ |②-③-|
□①③□ |④-⑤-|
□□②□ |⑥---|
17
②□□⑤ |①---|
□□□□ |②-③-|
□④④□ |--④-|
①③③① |⑤---|
18
⑦□□⑦ |①--②|
③□□□ |③-④⑤|
□⑥⑤④ |⑥---|
①②②① |⑦---|
19
□□□□ |①--②|
③⑦⑦□ |③-④⑤|
⑥□⑤④ |--⑥-|
①②②① |⑦---|
20
⑥⑥⑤⑤ |①---|
②□□② |②-③④|
□②②□ |⑤---|
①④③① |⑥---|
21
□⑤⑥□ |①---|
②□③□ |②-③-|
□□⑤② |④---|
①④④① |⑤-⑥-|
22
③⑤⑤□ |①-②-|
□⑤⑤□ |③---|
④②□③ |④---|
①□④① |⑤---|
23
⑭□⑬⑥ |①②③-|
⑫□⑪③ |④⑤⑥-|
⑩⑤⑨④ |⑦⑧⑨⑩|
⑧②⑦① |⑪⑫⑬⑭|
24
⑭□⑬⑥ |①②③-|
⑫□⑪③ |④⑤⑥-|
⑩⑤⑨④ |⑦⑧⑨⑩|
⑧②⑦① |⑪⑫⑬⑭|
25
□□④□ |①---|
□□□③ |②---|
□□□② |③---|
□□□① |④---|
26
□□⑤④ |①---|
□□①⑥ |②-③-|
□□③□ |④-⑤-|
□□②□ |⑥---|
27
□④□□ |①---|
③□□□ |②---|
□②□□ |③---|
①□□□ |④---|
28
□⑤□□ |①---|
⑥①□□ |②-③-|
④③□□ |④-⑤-|
□②□□ |⑥---|
29
□□④□ |①---|
□□□③ |②---|
□□②□ |③---|
□□□① |④---|
30
□□⑤④ |①---|
□□①⑥ |②-③-|
□□③□ |④-⑤-|
□□②□ |⑥---|
31
□④□□ |①---|
③□□□ |②---|
□②□□ |③---|
①□□□ |④---|
32
□⑤□□ |①---|
⑥①□□ |②-③-|
④③□□ |④-⑤-|
□②□□ |⑥---|
33
□□③⑤ |①--②|
□□□① |--③-|
□□②⑥ |-④--|
□□□④ |⑤-⑥-|
34
⑧□③□ |①--②|
□⑥⑦① |--③-|
⑦□②□ |④⑤⑥-|
□④⑧⑤ |⑦-⑧-|
35
□□③⑤ |①--②|
□□□① |--③-|
□□②⑥ |-④--|
□□□④ |⑤-⑥-|
36
⑩⑤⑤□ |①-②③|
④⑧⑨① |④-⑤-|
⑨②③□ |⑥⑦⑧-|
□⑥⑩⑦ |⑨-⑩-|
37
⑩⑤⑦⑨ |①-②③|
②⑧□③ |④-⑤-|
⑨④①⑩ |⑥⑦⑧-|
①⑥□⑤ |⑨-⑩-|
38
⑩⑤⑦□ |①-②③|
②⑥⑨③ |④-⑤-|
⑨④①□ |⑥⑦⑧-|
①⑧⑩⑤ |⑨-⑩-|
39
⑬⑤⑨① |①②③④|
⑭⑥⑩② |⑤⑥⑦⑧|
⑮⑦⑪③ |⑨⑩⑪⑫|
⑯⑧⑫④ |⑬⑭⑮⑯|
40
⑧②⑦① |①②③-|
⑩⑤⑨④ |④⑤⑥-|
⑫□⑪③ |⑦⑧⑨⑩|
⑭□⑬⑥ |⑪⑫⑬⑭|
41
□②④③ |①---|
□□□□ |--②-|
□□□① |----|
□□□□ |③-④-|
42
□□□□ |①-②-|
□①□□ |③-④-|
□□②□ |----|
④③□⑤ |⑤---|
43
□④②□ |①---|
③□□□ |--②-|
①□□□ |----|
□□□□ |③-④-|
44
⑤□□□ |①-②-|
□③□① |③-④-|
④□②□ |----|
□□□□ |⑤---|
45
□②④③ |①---|
□□□□ |--②-|
□□①① |----|
□□□□ |③-④-|
46
□□□□ |①-②-|
□①□□ |③-④-|
□□②□ |----|
④③□⑤ |⑤---|
47
□④②□ |①---|
③□□□ |--②-|
①①□□ |----|
□□□□ |③-④-|
48
⑤□□□ |①-②-|
□③□① |③-④-|
④□②□ |----|
□□□□ |⑤---|
49
⑤③⑥⑤ |①---|
④□□□ |②-③-|
②□①① |④---|
①□□□ |⑤-⑥-|
50
⑤□□□ |①---|
④③⑥⑤ |②-③-|
②□□□ |④---|
①□□① |⑤-⑥-|
51
⑤③⑥⑤ |①---|
④□□□ |②-③-|
②□①① |④---|
①□□□ |⑤-⑥-|
52
⑤□□□ |①---|
④③⑥⑤ |②-③-|
②□□□ |④---|
①□□① |⑤-⑥-|
53
□□⑧⑦ |①-②-|
⑥④□□ |③-④-|
□②③⑤ |⑤-⑥-|
①□①① |⑦-⑧-|
54
⑦⑧□□ |①-②-|
⑤□④⑥ |③-④-|
□③②□ |⑤-⑥-|
①□□① |⑦-⑧-|
55
⑫⑯⑮⑪ |①②③④|
⑭⑩⑨⑬ |⑤⑥⑦⑧|
④⑧⑦③ |⑨⑩⑪⑫|
⑥②①⑤ |⑬⑭⑮⑯|
56
③□□③ |①---|
□③③□ |②---|
③②②③ |③---|
□①①□ |----|
57
③①④□ |①---|
①④□③ |②---|
④③②□ |③---|
②②□① |④---|
58
④①⑤④ |①---|
①□①⑥ |②-③-|
⑥□③□ |④-⑤-|
□②②□ |⑥---|
59
□④④③ |①---|
③□①④ |②---|
□②③① |③---|
①□②② |④---|
60
□⑤⑥④ |①---|
⑥①①□ |②-③-|
④③□① |④-⑤-|
□②②□ |⑥---|
61
①③④□ |①---|
④①□③ |②---|
③④②□ |③---|
②②□① |④---|
62
①⑥⑤④ |①---|
□①①⑥ |②-③-|
④□③□ |④-⑤-|
□②②□ |⑥---|
63
□④④③ |①---|
③□①④ |②---|
□②③② |③---|
①□②① |④---|
64
□⑤⑤□ |①---|
⑥①①⑥ |②-③-|
④③③④ |④-⑤-|
□②②① |⑥---|
65
④⑩□⑤ |①-②-|
⑩①⑥□ |③-④-|
□⑦□⑨ |⑤⑥⑦⑧|
⑧②③① |⑨-⑩-|
66
④□⑨③ |--①-|
□⑤□⑨ |②-③-|
⑧□⑥□ |④⑤⑥⑦|
□②①⑦ |⑧-⑨-|
67
③⑨□④ |--①-|
⑨⑥⑤□ |②-③-|
⑦□□② |④⑤⑥⑦|
□①□⑧ |⑧-⑨-|
68
④□③□ |--①-|
□⑤⑥□ |②-③-|
□②□⑦ |④⑤⑥⑦|
⑧⑧①□ |⑧---|
69
⑫⑦□① |①②③④|
⑥⑧□② |⑤-⑥-|
⑨□③⑪ |⑦⑧⑨⑩|
⑩□④⑤ |⑪-⑫-|
70
□⑧⑦① |①②③④|
□⑥□② |⑤-⑥-|
⑨□③⑨ |⑦-⑧-|
□□④⑤ |⑨---|
71
①□⑦⑫ |①②③④|
②□⑧⑥ |⑤-⑥-|
⑪③□⑨ |⑦⑧⑨⑩|
⑤④□⑩ |⑪-⑫-|
72
①⑦⑧□ |①②③④|
②□⑥□ |⑤-⑥-|
⑨③□⑨ |⑦-⑧-|
⑤④□□ |⑨---|
73
□□□④ |①--②|
□□□⑥ |--③-|
□□②⑤ |④-⑤-|
□□③① |⑥-⑦-|
□□□□
□□□□
□□□□
□□□⑦
74
□□②③ |①--②|
□□④⑥ |--③-|
□□①□ |④-⑤-|
□□⑤⑦ |⑥-⑦-|
75
⑦□④② |①--②|
□⑤③⑥ |--③-|
⑥□⑤① |④-⑤-|
□④□⑦ |⑥-⑦-|
76
□□④② |①--②|
□□□⑥ |--③-|
□□⑤① |④-⑤-|
□□③⑦ |⑥-⑦-|
77
□⑤⑥⑧ |①-②③|
④⑦⑤□ |④-⑤-|
⑧②⑦① |⑥-⑦-|
□⑥③□ |⑧-⑨-|
⑨□□□
□□□□
□□□⑨
□□□□
78
□⑤⑥□ |①-②③|
②⑥⑧③ |④-⑤-|
⑧④⑦□ |⑥-⑦-|
①⑦①⑤ |⑧-⑨-|
⑨□□□
□□□□
□□□□
□□⑨□
79
⑬⑤⑨① |①②③④|
⑭⑥⑩② |⑤⑥⑦⑧|
⑮⑦⑪③ |⑨⑩⑪⑫|
⑯⑧⑫④ |⑬⑭⑮⑯|
80
⑧②⑦① |①②③-|
⑩⑤⑨④ |④⑤⑥-|
⑫□⑪③ |⑦⑧⑨⑩|
⑭□⑬⑥ |⑪⑫⑬⑭|
81
□□□① |①---|
□□□□ |----|
□□□① |----|
□□□□ |----|
最終更新:2025年11月10日 02:27