アットウィキロゴ
はらぺこヒーロー / 回せ!グルーヴ開発部
BPM:170
Notes:784

1
①⑤①⑤ |①---|
□□③□ |②-③-|
②□□□ |④---|
□④□□ |⑤---|
2
□⑤□□ |①-②-|
□②⑥□ |③-④-|
□④⑧① |⑤-⑥-|
□⑦③□ |⑦-⑧-|
3
①⑤①⑤ |①---|
□□③□ |②-③-|
②□□□ |④---|
□④□□ |⑤---|
4
□⑤□□ |①-②-|
□②⑥□ |③-④-|
□④⑦① |⑤-⑥-|
⑦□③⑧ |⑦-⑧-|
5
①□①⑤ |①---|
②③□□ |②-③-|
④□□② |④---|
⑤□④□ |⑤---|
6
①⑤□□ |①-②-|
③②⑥□ |③-④-|
⑤④⑧① |⑤-⑥-|
⑦⑦③□ |⑦-⑧-|
7
①□①⑤ |①---|
②③□□ |②-③-|
④□□② |④---|
⑤□④□ |⑤---|
8
①⑤□□ |①-②-|
③②⑥□ |③-④-|
⑤④⑦① |⑤-⑥-|
⑦□③⑧ |⑦-⑧-|
9
①⑤③① |①-②-|
□□□⑧ |③-④-|
⑥②□④ |⑤-⑥-|
□□⑦□ |⑦-⑧-|
10
□□□□ |----|
□②□□ |----|
□□□□ |--①-|
①□③□ |②-③-|
11
□□⑦□ |①-②-|
□⑥□□ |③-④-|
□②⑤③ |--⑤-|
□①□④ |⑥-⑦-|
12
□①□□ |①-②-|
⑦□②□ |③-④-|
□③□⑥ |⑤-⑥-|
⑤□④□ |⑦---|
13
□②④□ |--①-|
⑦□□□ |②-③-|
③□①⑤ |④-⑤-|
□⑥□□ |⑥-⑦-|
14
□□①□ |----|
□①□① |----|
□□□□ |--①-|
②□□□ |--②-|
15
□□□⑥ |①-②-|
⑤□②□ |③-④-|
①□③⑦ |--⑤-|
□□④□ |⑥-⑦-|
16
□①□□ |①-②-|
⑦□②□ |③-④-|
□③□⑥ |⑤-⑥-|
⑤□④□ |⑦---|
17
□④②□ |--①-|
□□□⑦ |②-③-|
⑤①□③ |④-⑤-|
□□⑥□ |⑥-⑦-|
18
□□□□ |----|
□③□□ |----|
□②□□ |--①-|
□①□□ |②-③-|
19
□□□□ |①-②-|
⑦□①② |③-④-|
□□③⑥ |--⑤-|
⑤□□④ |⑥-⑦-|
20
□④①□ |①-②-|
⑧②⑤□ |③-④-|
□□⑦□ |⑤-⑥-|
□⑥③□ |⑦-⑧-|
21
□□④□ |--①-|
⑦③□① |②-③-|
□□□⑤ |④-⑤-|
□⑥②□ |⑥-⑦-|
22
□□□□ |----|
□③□□ |----|
□□①□ |--①-|
②□□□ |②-③-|
23
①□□① |①---|
□⑤②□ |②-③-|
□□□⑥ |--④-|
□③④□ |⑤-⑥-|
24
⑩①①□ |①-②-|
⑨□□② |③④⑤⑥|
⑧③④□ |⑦⑧⑨⑩|
⑦⑤⑥□ |----|
25
□□□□ |--①-|
④⑥□① |②-③-|
□⑤②□ |--④-|
□□③□ |⑤-⑥-|
26
④□□② |--①-|
□□①⑥ |②-③-|
⑤□□③ |④-⑤-|
□□□⑦ |⑥-⑦-|
27
□②□□ |--①-|
②①②□ |--②-|
□②④□ |--③-|
□③□□ |④-⑤-|

□□□□
□⑤□□
□□□□
□□□□
28
□③②□ |①-②-|
④⑥□① |③-④-|
□□⑦□ |⑤---|
□□⑤⑤ |⑥-⑦-|
29
②②④④ |--①-|
□□□□ |--②-|
□□□□ |--③-|
①①③③ |--④-|
30
□□□□ |--①-|
①⑥⑤□ |②-③-|
⑦②□④ |④-⑤-|
□□③□ |⑥-⑦-|
31
□□□□ |--①-|
□④③⑦ |②-③-|
⑤②⑥□ |④-⑤-|
□□①□ |⑥-⑦-|
32
①□□□ |--①-|
④□□⑦ |②-③-|
□②□□ |④-⑤-|
□⑤⑥③ |⑥-⑦-|
33
①⑦⑦② |①-②-|
⑤①②⑥ |③-④-|
□③④□ |--⑤-|
③⑤⑥④ |⑥-⑦-|
34
①□□① |----|
□□□□ |①---|
⑤③②④ |②-③-|
③⑤④② |④-⑤-|
35
①⑤⑦② |①-②-|
⑥①②⑦ |③-④-|
⑦④③⑥ |--⑤-|
④⑦⑤③ |⑥-⑦-|
36
①④⑦① |--①-|
④②③⑦ |②-③-|
⑤③②⑥ |④-⑤-|
□⑤⑥□ |⑥-⑦-|
37
⑤③□⑧ |--①②|
⑦□②□ |③-④-|
⑤①⑧⑥ |⑤-⑥-|
□⑦⑥④ |⑦-⑧-|
38
②□⑦⑤ |--①-|
④②③① |②-③-|
⑥④⑤⑦ |④-⑤-|
⑥□③① |⑥-⑦-|
39
④②□⑤ |①---|
②①②③ |②-③-|
□②□□ |--④-|
⑤③□④ |⑤-⑥-|

□□□□
□⑥□□
□□⑥□
□□□□
40
③①②□ |--①-|
⑥⑥④④ |②-③-|
③①□② |④-⑤-|
⑤⑤⑦⑦ |⑥-⑦-|
41
③①①③ |①---|
□⑥④□ |②-③-|
⑤②②⑤ |--④-|
□④⑥□ |⑤-⑥-|
42
□③②□ |----|
②□□③ |①---|
③①①② |②---|
①②③① |③---|
43
①⑦⑦② |①-②-|
□③④□ |③-④-|
⑤①②⑥ |--⑤-|
③⑤⑥④ |⑥-⑦-|
44
①□□④ |--①-|
③⑥⑤② |②-③-|
□①②④ |④-⑤-|
③⑥⑤□ |⑥-⑦-|

⑦□□□
□□□□
⑦□□□
□□□□
45
⑧①②③ |--①②|
⑤□□⑤ |③-④-|
⑥⑧□⑦ |⑤-⑥-|
④⑥④⑦ |⑦-⑧-|
46
⑥③④② |--①-|
③⑥②④ |②-③-|
⑦□⑤□ |④-⑤-|
①⑦①⑤ |⑥-⑦-|
47
□③③① |①---|
□⑥□⑥ |②-③-|
⑤□⑤① |--④-|
②④②④ |⑤-⑥-|
48
④②⑥① |--①-|
④□⑥□ |②-③-|
□⑤□⑦ |④-⑤-|
□⑤③⑦ |⑥-⑦-|
49
□□□□ |①-②-|
⑥①⑥④ |③-④-|
③□②□ |--⑤-|
□⑤□⑤ |--⑥-|
50
①□□① |----|
□□□□ |①---|
②□□⑤ |②-③-|
□③④□ |④-⑤-|
51
①⑤⑦② |①-②-|
⑥①②⑦ |③-④-|
⑦④③⑥ |--⑤-|
④⑦⑤③ |⑥-⑦-|
52
①④⑦① |--①-|
④②③⑦ |②-③-|
⑤③②⑥ |④-⑤-|
□⑤⑥□ |⑥-⑦-|
53
⑥⑥⑤⑤ |--①-|
□②②□ |②---|
□①①□ |③-④-|
④④③③ |⑤-⑥-|
54
□⑤□⑦ |--①-|
④②⑥③ |②-③-|
□⑤①⑦ |④-⑤-|
④□⑥□ |⑥-⑦-|
55
①③③□ |①---|
⑤□④□ |②-③-|
①④□⑤ |--④-|
②□□② |--⑤-|
56
④□①④ |--①-|
⑤②□① |②-③-|
③□②□ |④---|
⑤③□□ |⑤-⑥-|

□□□□
□□□⑥
□□□□
□□□⑥
57
③①①③ |①---|
□⑥④□ |②-③-|
⑤②②⑤ |--④-|
□④⑥□ |⑤-⑥-|
58
□③②□ |----|
②□□③ |①---|
③①①② |②---|
①②③① |③---|
59
①⑦⑦② |①-②-|
□③④□ |③-④-|
⑤①②⑥ |--⑤-|
③⑤⑥④ |⑥-⑦-|
60
①□□④ |--①-|
③⑥⑤② |②-③-|
□①②④ |④-⑤-|
③⑥⑤□ |⑥-⑦-|

⑦□□□
□□□□
⑦□□□
□□□□
61
⑦③②④ |--①-|
□□□① |②-③-|
⑦⑤⑥④ |④-⑤-|
⑤□□⑥ |⑥-⑦-|
62
⑥②③⑦ |--①-|
①⑥⑦□ |②-③-|
□④⑤□ |④-⑤-|
④□□⑤ |⑥-⑦-|
63
④③③⑤ |①---|
□□⑤□ |②-③-|
①⑤□① |--④-|
⑤②②④ |--⑤-|
64
□⑥①□ |--①-|
⑤⑦□④ |②-③-|
④□⑦⑤ |④-⑤-|
□②⑥③ |⑥-⑦-|
65
①⑤①⑤ |①---|
□□③④ |②-③-|
②②□□ |④---|
□④□□ |⑤---|
66
□⑤□⑤ |①-②-|
□②⑥□ |③-④-|
□④①① |⑤-⑥-|
③⑦③⑦ |⑦-⑧-|

□□□□
□□□□
□□⑧□
□□□□
67
①⑤①⑤ |①---|
□□③④ |②-③-|
②②□□ |④---|
□④□□ |⑤---|
68
□⑤□⑤ |①-②-|
□②⑥□ |③-④-|
□④①① |⑤-⑥-|
③□③□ |⑦-⑧-|

□□□□
□□□□
□□⑦□
□⑦□⑧
69
①⑤①⑤ |①---|
□□③④ |②-③-|
②②□□ |④---|
□④□□ |⑤---|
70
□⑤□⑤ |①-②-|
□②⑥□ |③-④-|
□④①① |⑤-⑥-|
③⑦③⑦ |⑦-⑧-|

□□□□
□□□□
□□⑧□
□□□□
71
①⑤①⑤ |①---|
□□③④ |②-③-|
②②□□ |④---|
□④□□ |⑤---|
72
□⑤□⑤ |①-②-|
□②⑥□ |③-④-|
□④①① |⑤-⑥-|
③□③□ |⑦-⑧-|

□□□□
□□□□
□□⑦□
□⑦□⑧
73
□⑤①□ |①---|
□□③□ |②-③-|
②□□□ |④---|
□④□□ |⑤---|
74
□⑤□□ |①-②-|
□②⑥□ |③-④-|
□④⑧① |⑤-⑥-|
□⑦③□ |⑦-⑧-|
75
□⑤①□ |①---|
□□③□ |②-③-|
②□□□ |④---|
□④□□ |⑤---|
76
□⑤□□ |①-②-|
□②⑥□ |③-④-|
□④⑦① |⑤-⑥-|
□□③⑧ |⑦-⑧-|
77
①□①⑤ |①---|
②③□□ |②-③-|
④□□② |④---|
⑤□④□ |⑤---|
78
①⑤□□ |①-②-|
③②⑥□ |③-④-|
⑤④⑧① |⑤-⑥-|
⑦⑦③□ |⑦-⑧-|
79
①□①⑤ |①---|
②③□□ |②-③-|
④□□② |④---|
⑤□④□ |⑤---|
80
①⑤□□ |①-②-|
③②⑥□ |③-④-|
⑤④⑦① |⑤-⑥-|
⑦□③⑧ |⑦-⑧-|
81
①□□① |①---|
□□□□ |----|
□□□□ |----|
□□□□ |----|
最終更新:2025年11月10日 02:26