アットウィキロゴ
BPM:132

1
□①□① |①-②-|
□□④□ |③-④---|
□③□□ |⑤-⑥-|
□□□② |⑦-⑧-|

□□⑦⑦
⑤⑤□□
□□□⑧
⑥□□□
2
□□□□ |①--②-③|
□③□□ |④-⑤-|
⑤□④□ |⑥-⑦-|
□①①② |⑧-⑨-|

□⑥□⑥
⑦□⑦□
□⑧□⑧
□□⑨□
3
①□①□ |①-②-|
□④□□ |③-④---|
□□③□ |⑤-⑥-|
②□□□ |⑦-⑧-|

⑦⑦□□
□□⑤⑤
⑧□□□
□□□⑥
4
□□□□ |①--②-③|
□□③□ |④-⑤-|
□④□⑤ |⑥-⑦-|
②①①□ |⑧--⑨-⑩|

□⑥□⑥
⑧⑩⑩⑧
□□□□
□⑦⑦⑨
5
①□③① |--①--②|
□□□□ |③-④-|
□②□□ |⑤--⑥|
□④④□ |-----⑦|

⑥□□⑥
⑤⑥⑥⑤
⑥□□⑥
□⑦⑦□
6
⑤①①⑤ |--①--②|
□⑥⑥③ |③-④-|
⑥④④⑥ |⑤--⑥|
②⑥⑥□ |----|
7
⑦④④⑦ |①②--|
①⑤⑥② |③-④-|
□①②□ |⑤⑥--|
③□□③ |⑦---|
8
□□□□ |①-②-|
①□□① |③---|
②□□② |④---|
③□□③ |⑤------------------⑥---⑦|

□⑤⑤□
⑥⑦□□
□□□□
□④④□
9
②□□⑤ |---①---------------②----|
⑤□①□ |-③---④--|
□④□⑤ |⑤----|
⑤□□③ |⑥⑦⑧---|

□□□□
□⑧⑦⑥
□□□□
□□□□
10
③③④④ |①-②-③-|
□⑥□⑥ |④---⑤-|
①⑤②□ |-⑥----|
⑥①⑥② |⑦-⑧⑨--|

□⑨□□
□□⑧□
□□□□
□⑦□□
11
②⑧⑤② |①-②---|
⑩④⑦⑩ |③-④⑤--|
①□□① |⑥-⑦⑧--|
⑨⑥③⑨ |⑨-⑩---|
12
□④①□ |①-②③--|
□□□□ |④-⑤⑥--|
□②⑤□ |⑦-⑧---|
□⑥③□ |⑨--⑩|

⑧□□⑧
□⑨⑨□
⑦⑩□⑦
□□□□
13
□□□□ |①②③④|
②□□① |⑤-⑥⑦|
④□□③ |⑧⑨⑩⑪|
□⑦⑥⑤ |⑫⑬-⑭|

⑨⑨⑧⑧
⑪⑪⑩⑩
⑬⑬⑫⑫
⑭□□□
14
④⑥⑤③ |-①-②|
□□□□ |③④⑤⑥|
□□□□ |⑦⑧⑨⑩|
□②□① |⑪⑫--|

□□□□
⑧⑧⑦⑦
⑩⑩⑨⑨
⑫⑫⑪⑪
15
④②⑤① |①-②③--|
□⑥③□ |④-⑤⑥--|
□□□□ |⑦-⑧-|
□□□□ |⑨-⑩---|

⑩□□⑩
□□□□
⑧⑨⑨⑧
⑦□□⑦
16
□①①□ |①-②-|
③□□③ |③-④⑤-⑥|
□⑤⑦□ |⑦-⑧-|
④②②⑥ |⑨-⑩-|

⑧□□⑧
□⑩□□
⑨□□⑨
□□□□
17
□②⑦□ |①-②--③|
⑧⑨④③ |④-⑤-|
□□□□ |⑥-⑦--⑧|
⑤⑥①⑩ |⑨-⑩-|
18
□④□⑤ |①-②③-④|
⑥⑦⑧□ |⑤---⑥⑦|
②□③□ |⑧-⑨--⑩|
□⑨①□ |⑪-⑫---|

⑫□□□
□□□□
□□⑪⑩
□□□□
19
⑩④④⑩ |①②-③--|
⑦⑧⑨□ |④--⑤-⑥|
①②□⑥ |-⑦⑧⑨--|
③⑤⑤③ |⑩---|
20
□④④□ |①②-③--|
□□⑥⑤ |④-⑤⑥--|
①②□□ |⑦-⑧-|
③□□③ |⑨---|

⑨□□⑨
□□□□
⑧⑨⑨⑧
□⑦⑦□
21
□□□□ |①-②③-④|
②③⑤④ |⑤--⑥|
□□□□ |--⑦-|
□⑥⑥① |⑧--⑨-⑩|

⑧⑧⑩□
□□□□
⑦⑦□□
⑨□□□
22
⑥□□□ |--①②-③|
③④⑤□ |④⑤-⑥-⑦|
□□②① |⑧--⑨-⑩|
□□⑧⑦ |⑪-⑫---|

□⑨⑨□
□□□□
⑫□⑩⑫
□⑪□□
23
⑨⑤⑤⑧ |①---②-|
④①①③ |③④--|
⑨②□⑧ |⑤-⑥⑦|
④⑦⑥③ |⑧⑨--|
24
□□□□ |①---|
□①②□ |②---|
□②①□ |③-④-|
□□□□ |⑤⑥-⑦|

⑦□□③
③⑥□⑦
⑦□⑤③
③④④⑦
25
□□□□ |----|
□□□□ |----|
□□□□ |----|
□□□□ |----|
26
□□□□ |----|
□□□□ |----|
□□□□ |----|
□□□□ |----|
27
①①□□ |①---|
②②□□ |②---|
□□□② |③---|
□□①□ |④-⑤---|

□□□④
□□③□
③③□□
④④⑤□
28
①①②□ |①-②---|
③③□□ |③---|
□□③□ |④---|
□□□① |⑤---|

□□⑤□
□□□④
④④□□
⑤⑤□□
29
□□③□ |----|
□④①③ |①-②-|
④②⑤□ |③----④|
□□□⑤ |--⑤-|
30
②□□② |①---|
③④⑤□ |②---|
□③④⑤ |③--④|
□①①□ |--⑤-|
31
②④④② |①-②-|
⑤□□⑤ |③-④-|
□⑤⑤□ |⑤---|
③①①③ |----|
32
④□⑦② |①-②-|
□⑥□□ |③-④-|
①⑤⑤③ |⑤--⑥|
□①③□ |⑦---|
33
□□□□ |①-②-③-|
③□□⑥ |④-⑤-⑥-|
□②⑤□ |⑦--⑧|
①□□④ |⑨---|

□□⑨□
□⑦⑦□
□⑧□□
□□□□
34
②□□② |①---|
□⑤④③ |②---|
⑤④③□ |③--④|
□①①□ |--⑤-|
35
②④④② |①-②-|
⑤□□⑤ |③-④-|
□⑤⑤□ |⑤---|
③①①③ |----|
36
③③□□ |--①②|
□①□□ |--③-|
□□□□ |④--⑤|
□□②□ |--⑥-|

□□□⑥
□⑥□⑤
□⑤□④
□④□□
37
⑧①⑧□ |①-②-|
①⑦③⑦ |③-④-|
⑥□⑥③ |⑤-⑥-|
④⑤②⑤ |⑦-⑧-|
38
□⑥⑦① |①---|
□⑧⑨□ |----|
□□④③ |②③④⑤|
□□②⑤ |⑥⑦⑧⑨|
39
⑤□□⑥ |①②③④|
⑦□□⑧ |⑤⑥⑦⑧|
③②□□ |⑨-⑩-|
①④□□ |⑪---|

□⑨⑨□
□⑩⑩□
□⑪⑪□
□□□□
40
□□□□ |①---|
□□□□ |----|
□□□□ |②③④⑤|
①□□① |⑥⑦⑧⑨|

□□⑤②
□□③④
⑨□□⑧
⑦□□⑥
41
④①□□ |①②③④|
②③□□ |⑤⑥⑦⑧|
□⑧⑦□ |⑨-⑩-|
□⑥⑤□ |⑪-⑫-|

⑫□□⑫
⑪□□⑪
⑩□□⑩
⑨□□⑨
42
□□□□ |①---|
②□②□ |----|
□②□□ |②---|
②①①□ |③-④-|

④□□□
□④□□
③□□□
□③□□
43
⑤①⑤① |①-②-|
②⑦②⑦ |③-④-|
⑥③⑥③ |⑤-⑥-|
④⑧④⑧ |⑦-⑧-|
44
□①□□ |①---|
□□①□ |--②-|
□①□□ |③-④-|
②□①□ |⑤-⑥⑦|

□⑤③□
⑤□□③
□⑦□□
□□⑥④
45
②□□③ |①-②-|
□④①□ |③-④⑤|
□□⑤□ |⑥-⑦-|
□⑥□□ |⑧---|

□□□□
□□⑦⑦
⑧⑧□□
□□□□
46
□□③② |①--②|
①③□□ |--③-|
□□③① |④---|
②③□□ |⑤---|

④□□□
⑤□□⑤
⑤□□⑤
□□□④
47
③②②① |①---|
□□□□ |②---|
□□□□ |③---|
①②②③ |----|
48
□□③② |①--②|
①③□□ |--③-|
□□③① |④---|
②③□□ |⑤---|

④□□□
⑤□□⑤
⑤□□⑤
□□□④
49
③②②① |①---|
□□□□ |②---|
□□□□ |③---|
①②②③ |----|
50
□③□② |①--②|
①□③□ |--③-|
□③□① |④---|
②□③□ |⑤---|

④□□□
⑤□□⑤
⑤□□⑤
□□□④
51
□②②① |①---|
□□□□ |②---|
□□□□ |③-④-⑤-|
①②②□ |⑥-⑦-⑧-|

③□□□
⑥④□□
□⑦⑤□
□□⑧□
52
⑤⑧⑧② |①---|
□⑥③□ |②-③-④-|
⑦⑨□④ |⑤-⑥-⑦-|
①①□□ |⑧---⑨-|
53
②③④⑤ |①---|
□□□□ |②-③-④-|
⑧⑥□⑧ |⑤---⑥-|
⑦□①⑦ |⑦-⑧-|
54
□□□□ |①---|
①□□① |----|
□□□□ |----|
□□□□ |----|
最終更新:2025年11月10日 01:44