イマココ!この瞬間 / 日向美ビタースイーツ♪
BPM:152
Notes:616
1
□□□□ |①-②-|
□□□□ |③-④-|
□□③④ |----|
①②□∧ |⑤---|
□□□□
□□□□
□□□⑤
□□□□
2
□□□□ |①-②-|
□□③④ |③-④-|
①②□∧ |----|
□□□□ |⑤---|
□□□□
□□□⑤
□□□□
□□□□
3
□□□□ |①-②-|
□□□□ |③-④-|
④③□□ |----|
∧□②① |⑤---|
□□□□
□□□□
⑤□□□
□□□□
4
□□□□ |①-②-|
④③□□ |③-④-|
∧□②① |----|
□□□□ |⑤---|
□□□□
⑤□□□
□□□□
□□□□
5
⑤□⑥□ |①-②-|
□④□③ |③-④-|
⑦□⑧□ |⑤-⑥-|
①①②□ |⑦-⑧-|
6
□④□⑤ |--①-|
②□③□ |②-③-|
□⑥□⑦ |④-⑤-|
□①□□ |⑥-⑦-|
7
□□②□ |--①-|
□□②③ |②---|
①④②□ |③-④-|
①□②⑤ |⑤-⑥-|
□⑥□□
⑥+―<
□|□□
□∧□□
8
□①②② |----|
①③□□ |----|
□□□□ |①-②-|
□□□□ |--③-|
9
□□∨□ |①---|
□□|□ |----|
―+① |②-③-|
③□①□ |④-⑤-|
□□□□
④□□□
□⑤□②
□□②□
10
①①□□ |①---|
□②②④ |②---|
②□□② |----|
□②②③ |③-④-|
11
□□①□ |①-②-|
□□□□ |----|
□□□② |----|
□□②□ |③-④-|
③□③□
③③□□
③□③□
□□□□
□□∨□
□□|□
―+④
□□④□
12
④①□□ |①---|
□□□□ |--②-|
□⑤□③ |③-④-|
②②③□ |⑤---|
13
□①⑤① |--①-|
□①①① |--②-|
②④①□ |③-④-|
□②③□ |⑤-⑥-|
⑥□□□
□⑥□□
□□□□
□□□□
14
□⑦⑥□ |--①-|
①□□① |②-③-|
②⑤⑤② |④-⑤-|
③④④③ |⑥-⑦-|
15
□□□□ |--①-|
④□□① |②-③-|
②□□⑤ |④-⑤-|
⑥□□③ |⑥-⑦-|
□⑦□□
+⑦□
□∧□□
□□□□
16
②①②□ |----|
□□①□ |----|
□□□□ |①-②-|
□③③□ |--③-|
17
□□⑦⑤ |①-②-|
□□⑤⑦ |③-④-|
④⑥⑧③ |⑤-⑥-|
②⑧⑥① |⑦-⑧-|
18
⑤⑦□□ |①-②-|
⑦⑤□□ |③-④-|
③⑥□④ |⑤-⑥-|
①□⑥② |⑦-⑧-|
□□□□
□∨□□
+⑧□
□⑧□□
19
□□①□ |①---|
□⑤⑤□ |--②-|
②□③□ |③---|
□③□④ |④-⑤-|
20
①□□① |--①-|
②⑥⑤② |②-③-|
③⑧⑦③ |④-⑤⑥|
④□⑨④ |⑦⑧⑨-|
21
①□①□ |①---|
□②□② |--②-|
□□□□ |----|
□③③□ |③---|
22
⑥□⑦□ |-①②③|
⑤⑥⑤⑦ |④-⑤-|
①②③④ |⑥-⑦-|
□□□□ |⑧-⑨-|
□□□□
□□□□
⑧□⑨□
□⑧□⑨
23
□①□① |①---|
②□②□ |--②-|
□□□□ |----|
③□□③ |③---|
24
⑤①⑤⑦ |-①②③|
□②⑦□ |④-⑤-|
□③□⑥ |⑥-⑦-|
□④⑥□ |⑧-⑨-|
□⑧□□
⑧□□□
□⑨□□
⑨□□□
25
③□③□ |①--②|
□①□① |--③-|
④□⑤□ |--④-|
□⑥□② |⑤-⑥-|
26
③□③□ |①--②|
□①□① |--③-|
□⑥⑤□ |--④-|
□④□② |⑤-⑥-|
27
□③□③ |①--②|
①□①□ |--③-|
□⑤□④ |--④-|
②□⑥□ |⑤-⑥-|
28
⑤③⑤③ |①--②|
①□①□ |--③-|
□⑦□□ |--④-|
②④⑥□ |⑤-⑥⑦|
29
⑤③⑤③ |①---|
⑤□①③ |②-③-|
②□□④ |--④-|
□□□□ |⑤---|
30
□□□□ |①---|
□□□□ |②---|
□②□□
□□①□
31
□□□□ |①---|
□□①① |②---|
□□|| |③---|
□②∧∧ |④---|
□□□□
④④④④
||③□
∧∧□□
32
□②□② |----|
①①□□ |①---|
□□①□ |②---|
③□③□ |③---|
33
―④□ |①-②-|
□□③□ |③-④-|
⑥②□□ |--⑤-|
⑤①□□ |⑥-⑦-|
□□⑦□
⑦―<□
□□□□
□□□□
34
④>―③ |--①-|
③□②□ |②-③-|
□□□① |--④-|
□⑤□□ |⑤-⑥-|
□□□⑥
□⑥□□
□□□□
□□□□
35
□□□⑤ |①-②-|
④□①□ |③---|
□②③□ |----|
□□□□ |④-⑤-|
36
①②②□ |①---|
□②□② |②---|
②②□□ |----|
②②□① |----|
37
□④―< |①-②-|
□③□□ |③-④-|
□□②⑥ |--⑤-|
□□①⑤ |⑥-⑦-|
□⑦□□
□>―⑦
□□□□
□□□□
38
③―<⑤ |--①-|
□②□③ |②-③-|
①□④□ |--④-|
□□□□ |⑤-⑥-|
⑥□□□
□□□□
□□□□
□□⑥□
39
⑥□□□ |①-②-|
③□②□ |③-④-|
□①□④ |--⑤-|
□□□⑤ |⑥-⑦-|
□⑦⑦□
□⑦□⑦
⑦⑦□□
⑦⑦□□
40
□□□① |--①-|
②□□□ |②-③-|
□□⑤□ |--④-|
□④③③ |⑤---|
41
①①□① |①---|
②②②□ |②---|
③③□□ |③---|
④④□③ |④-⑤-|
□□□⑤
□□□⑤
□□□□
□□□□
42
①①②□ |①-②-|
③③⑤□ |③-④-|
⑤⑤□④ |⑤---|
⑥⑥③□ |⑥---|
43
①①④□ |①-②-|
③③⑦③ |③-④-|
⑤⑤②□ |⑤-⑥-|
⑦⑦⑥① |⑦-⑧-|
⑧□□⑧
□□□□
□□□□
□□□□
44
□□①⑥ |--①-|
⑤②□⑤ |②-③-|
□□③□ |④---|
④④□□ |⑤-⑥-|
45
③②①□ |①-②-|
|□□□ |③-④-|
∧④④□ |--⑤-|
□□⑤□ |⑥-⑦-|
⑥□□□
□⑥□□
□□□□
□□□⑦
46
□□□□ |①-②-|
□□③④ |③-④-|
①②□□ |⑤---|
□□□□ |⑥---|
⑤⑤□□
||□□
∧∧□□
□□□□
⑥⑥□□
□□□□
□□□□
□□⑥⑥
47
□□□① |①---|
⑤□③□ |②-③-|
②□④③ |--④-|
①②□□ |⑤-⑥-|
□□□⑥
□□□□
□□□□
□□□□
48
□①①□ |①---|
□①□① |----|
①①□□ |----|
①①□□ |----|
49
□□□① |①---|
□□□| |②---|
□□□∧ |③---|
□②□□ |④---|
□□□③
□④□□
□□③□
□□□□
50
①①□② |①---|
||□□ |②---|
∧∧□□ |③---|
□□□□ |④---|
③③□□
□□□□
□□③□
④□□□
51
□□□∨ |①---|
□□∨∨ |②---|
□□|① |③---|
□②①① |④---|
□□□④
③□□□
□□□③
□□③③
52
□□□□ |①---|
□□□□ |----|
①①<< |②---|
①①<< |----|
□②②□
□②□②
②②□□
②②□□
53
□④④□ |①-②-|
□③□□ |③---|
□□②⑤ |④---|
□□□① |--⑤⑥|
□□□□
□□□□
□□⑥□
□□□□
54
□⑤⑤□ |①-②-|
③□□④ |③-④-|
□□□□ |⑤---|
①□□② |----|
55
⑥□□① |①-②-|
□②□⑦ |③-④-|
□□③□ |⑤---|
④⑤⑤□ |⑥-⑦-|
56
□∨∨□ |①---|
□||□ |----|
①②②① |②---|
□□□□ |③-④-|
□□□④
□□□□
□③③□
□□□□
57
□□□□ |①-②-|
□③□□ |③-④-|
②□□□ |--⑤-|
□①□□ |⑥-⑦-|
④⑦―<
|□⑥□
|⑤□□
∧□□□
58
□□□□ |--①-|
③<□□ |②-③-|
□□②□ |----|
□□□① |----|
59
□□□□ |①-②-|
□□③□ |③-④-|
□□□② |--⑤-|
□□①□ |⑥-⑦-|
⑥⑥□④
⑥⑥□|
□□⑤|
□□□∧
―⑦□
□□□□
□□□□
□□□□
60
□□□□ |--①-|
□□>③ |②-③-|
□②□□ |----|
①□□□ |----|
61
□□□□ |①-②-|
□③□□ |③-④-|
②□□□ |--⑤-|
□①□□ |⑥-⑦-|
④□⑥⑥
|□⑥⑥
|⑤□□
∧□□□
□⑦―<
□□□□
□□□□
□□□□
62
□□□□ |--①-|
③<□□ |②-③-|
□□②□ |----|
□□□① |----|
63
①①②□ |①---|
①③□② |②---|
□□□□ |③-④-|
④①①□ |--⑤-|
⑤□□⑤
|□□|
∧□□∧
□□□□
64
①□□① |----|
□□□□ |----|
□□□□ |----|
□□□□ |①---|
65
□□②④ |①---|
□>―⑤ |②---|
□□□① |③---|
□□③□ |④-⑤-|
66
④②□□ |①---|
⑤―<④ |②---|
①□□□ |③---|
□③□□ |④-⑤-|
67
□□④② |①---|
④□□□ |②---|
□□①□ |③---|
□□□③ |④-⑤-|
□□□□
―⑤□
□□□□
□□□□
68
②④□□ |①---|
□□④□ |②---|
□①□□ |③---|
③□□□ |④-⑤-|
□□□□
□⑤―<
□□□□
□□□□
69
□□②□ |①---|
□④④□ |②---|
□>―⑤ |③---|
□□③① |④-⑤-|
70
□②□□ |①---|
□④□□ |②---|
⑤□□④ |③---|
①③□□ |④-⑤-|
71
④③②① |①-②-|
④□□① |③-④-|
□⑥□□ |--⑤-|
□□⑤□ |⑥-⑦-|
□□□□
□⑦⑦□
□||□
□∧∧□
72
□□□□ |----|
□①①□ |----|
□□□□ |①---|
□□□□ |----|
73
□□□① |①---|
□□□| |②---|
□□□∧ |③---|
□②□□ |④---|
□□□③
□④□□
□□③□
□□□□
74
①①□② |①---|
||□□ |②---|
∧∧□□ |③---|
□□□□ |④---|
③③□□
□□□□
□□③□
④□□□
75
□□□∨ |①---|
□□∨∨ |②---|
□□|① |③---|
□②①① |④---|
□□□④
③□□□
□□□③
□□③③
76
②②< |①---|
②>② |----|
①①<< |②---|
①①<< |----|
77
□□□□ |----|
□□□□ |----|
□□□□ |----|
□□□□ |----|
78
□①①□ |①---|
□①□① |----|
①①□□ |----|
①①□□ |----|
最終更新:2025年11月10日 02:26