ロマンシングエスケープ / ここなつ2.0
BPM:132
Notes:427
1
□□□□ |①---|
□□□□ |----|
□□□□ |----|
①――< |----|
2
□□□□ |①---|
□□①□ |----|
□□|□ |②---|
□□∧□ |--③④|
□□□③
□□②④
□□□□
□□□□
3
□□□□ |①---|
□□□□ |----|
――① |----|
①□□□ |--②-|
□□□□
□□□□
②□□□
□□□□
4
□□□□ |--①-|
□①□□ |--②-|
□□②□ |--③-|
□③□□ |----|
5
□□□□ |①---|
①――< |----|
□□□① |----|
□②③□ |--②③|
6
□□□□ |①---|
□□□∨ |----|
□□□| |②---|
□□□① |③---|
□□□□
□③③□
□□□□
□□□②
7
――① |①---|
①□□□ |----|
□□□□ |----|
□□□□ |----|
8
□□□□ |----|
□□□□ |----|
□①□□ |----|
□□□□ |--①-|
9
①□□① |①---|
②□□□ |----|
□□□□ |②---|
□□□□ |----|
10
□□①□ |①---|
――① |----|
□□①□ |②---|
□□□□ |--③④|
□□□□
□□④②
□③□□
□□□□
11
①□□□ |①---|
□□□□ |----|
②□□□ |②---|
□□□□ |----|
12
□□□□ |①---|
□□①□ |----|
――① |②---|
□□①□ |--③④|
□□□□
□□④□
□③□②
□□□□
13
①□□□ |①---|
②□□□ |----|
②□□□ |②---|
□□□□ |----|
14
□□□□ |①-----|
――① |------|
――① |②---③-|
□□□□ |④-⑤-⑥-|
④□□□
□⑤□②
⑥□③②
□□□□
15
□□□③ |①---②-|
□□④□ |③-④-⑤-|
□②□⑤ |⑥-----|
①①□□ |⑦---⑧-|
□⑦□□
⑦□□□
□□□□
□⑧⑥⑥
16
①□②④ |①-----|
□□□② |②---③-|
①□□④ |④-----|
□□③□ |------|
17
□□□□ |--①-|
□□③□ |②-③-|
□□□②
□①□□
□④□④
□□□□
□□⑧□ |④-⑤⑥|
□⑦⑥⑤ |⑦-⑧-|
18
⑥③□③ |①-②-|
□①□① |③-④-|
⑤□□② |⑤---|
④□□□ |⑥---|
19
□⑤⑤③ |①-②-|
①――< |--③-|
□□④⑥ |④-⑤-|
□②□② |⑥-⑦⑧|
□□□□
□⑦⑧□
□□□□
□□□□
20
⑥③□③ |①-②-|
①□□① |③-④-|
④②□□ |⑤---|
⑤□□□ |⑥---|
21
□①□① |①---|
□④③② |--②③|
①――< |④---|
□⑤⑥□ |--⑤⑥|
22
□□□□ |①---|
□□⑤□ |--②③|
①④③② |④---|
□□□① |⑤-⑥-|
□□□□
□□□□
□□□□
□□□⑥
23
□①□① |①---|
□③□③ |②---|
□□②□ |③---|
□□④□ |④---|
24
①□①□ |①---|
④<□□ |②---|
③―<□ |③---|
②――< |④---|
25
□②□□ |①---|
①□∨∨ |②---|
①□|| |③---|
①□①① |④---|
□□□□
□□③□
□④□□
□□③③
26
□②∨∨ |①---|
①□|| |②---|
□□①① |③---|
□□□□ |④---|
□□□□
□③④□
□□③③
□□□□
27
□□①① |①---|
□④③③ |②---|
③□□□ |③---|
□②□□ |④---|
28
□□□③ |①-②-|
①⑤②□ |③---|
③④①① |④---|
□□□□ |⑤---|
29
②②□□ |①---|
④⑤④④ |--②-|
□③②② |--③-|
□□①① |④-⑤-|
30
□④①① |--①-|
②□□□ |----|
□③□□ |--②-|
①①□□ |③-④-|
31
④⑤□□ |①-②-|
③③□① |--③-|
⑤④□① |--④-|
②②□□ |--⑤-|
32
②□□□ |--①-|
□③□⑥ |--②-|
④□□□ |③-④-|
①①⑤□ |⑤-⑥-|
33
□□③② |①---|
□②④③ |②---|
□④③② |③---|
①①□④ |④---|
34
□①②① |①---|
□□□□ |②---|
□□③② |③---|
□□③□ |④---|
□□□④
□④□□
□□□□
□□□□
35
①―<□ |①---|
□□□□ |----|
□□□□ |②---|
――① |----|
②□□□
□□□□
②―<□
□□□□
36
□□□□ |①---|
□①―< |----|
①□□□ |②---|
□□□□ |③-④-|
□□□□
□②□④
□②―<
□□③②
37
□□③② |①---|
□②□③ |②---|
□①③② |③---|
□①―< |④---|
□□□□
□□④□
□④□□
□□□④
38
□①②① |①---|
□□□□ |②---|
□□③② |③---|
□①③□ |④---|
□□□④
□④□□
□□□□
□□□□
39
④④□□ |①---|
□③□□ |--②-|
②□□□ |--③-|
――① |--④-|
40
□□□□ |--①-|
①②□□ |--②-|
□③□□ |③-④-|
①④□③ |----|
41
□①①② |①---|
□□□| |②---|
□□□∧ |③---|
□□□□ |④---|
□□□③
□③□□
□|□□
□∧□□
□□□□
□④∨□
□□|□
□□④□
42
□①―< |①---|
□□□□ |②---|
□□□□ |③---|
□□①□ |④---|
□②□□
―②□
□□□□
□□□□
□□∨□
□□|□
□□③□
□□□□
□□□□
□□③∨
□□④|
□□□④
43
□②□□ |①---|
□|□□ |②---|
□∧□□ |③---|
□①①① |④---|
□③□□
□>―③
□□□□
□□□□
□□□□
□□∨④
□□|□
□□④□
44
□□□① |①---|
□□□| |②---|
□□□∧ |③---|
□□①□ |④---|
□□□②
―②□
□□□□
□□□□
□□□□
□□③∨
□□□|
□□□③
□□□□
□□□□
―④□
□□□④
45
□∨∨□ |①---|
□||□ |----|
□||□ |----|
□①①□ |②-③-|
□③□□
③□□□
□□①□
□②②□
46
①④④□ |①--②|
□①□□ |--③-|
□②□□ |④---|
⑤⑤③□ |⑤---|
47
②□③□ |①-②-|
□□□□ |③-④-|
①□④□ |--⑤-|
□□□□ |--⑥-|
⑥―<□
□⑤⑤□
□□□□
□□□□
48
□□□□ |--①-|
□□□□ |----|
①―<□ |----|
□□□□ |②-③-|
②>―③
□□□□
②□□□
□□□□
49
⑤□□□ |--①-|
②④□□ |-②--|
③>―① |③--④|
①□□□ |--⑤-|
50
⑤―<③ |--①-|
□②④□ |-②--|
□③□③ |③--④|
□①□□ |--⑤-|
51
□□□⑤ |--①-|
□□④② |-②--|
①―<③ |③--④|
□□□① |--⑤-|
52
④③⑥□ |①--②|
⑤□□② |--③-|
④④④□ |④--⑤|
□①①□ |--⑥-|
53
②②□□ |①---|
□①①□ |②---|
□□□□ |③---|
□□□② |④--⑤|
□□□□
④④□③
□>―⑤
□□④□
54
□□①□ |--①-|
□□□□ |②---|
②②□① |----|
③③□④ |③-④-|
55
②②□□ |①---|
□①①□ |②---|
□□□□ |③---|
□□②□ |④--⑤|
□□□③
④④④□
□>―⑤
□□□□
56
□□①□ |--①-|
□□□□ |②---|
②②□① |----|
③③④□ |③-④-|
57
②②□□ |①---|
□①①□ |②---|
□□□□ |③---|
□□□② |④--⑤|
□□□□
④④□③
□>―⑤
□□④□
58
□□①□ |--①-|
□□□□ |②---|
②②□① |----|
③③□④ |③-④-|
59
②②□□ |①---|
□①①□ |②---|
□□□□ |③---|
□□②□ |④--⑤|
□□□③
④④④□
□>―⑤
□□□□
60
□□①□ |--①-|
□□□□ |②---|
②②□① |③-④-|
□□□□ |⑤-⑥-|
□□⑥□
□□□⑤
□□④□
⑤⑤□③
61
①<∨① |①---|
∨①①∧ |----|
①∧>① |----|
□□□□ |----|
62
□□□□ |①---|
□□□□ |----|
□□□□ |----|
□□□□ |----|
63
①□□① |①---|
□①①□ |----|
①□□① |----|
□□□□ |----|
最終更新:2025年11月10日 02:24