残像ニ繋ガレタ追憶ノHIDEAWAY / SOUND HOLIC Vs. BEMANI Sound Team "KE!JU" feat. Nana Takahashi
BPM:160
Notes:847
1
①□□① |①---|
□□□□ |----|
□□□□ |----|
□□□□ |----|
2
□②□□ |①---|
□□□② |----|
①□□□ |②---|
□□①□ |----|
3
□□□□ |①---|
□□□□ |----|
□□□□ |----|
①□□① |----|
4
□□□□ |①---|
□②②□ |----|
□①①□ |②---|
□□□□ |----|
5
①①①□ |①---|
②□□□ |②---|
③□□□ |③---|
④□□□ |④---|
6
①③□□ |①---|
②□□③ |②---|
③①□□ |③---|
④□□① |④---|
7
①□□□ |①---|
②□□□ |②---|
③□□□ |③---|
④□①① |④---|
8
□①②□ |①②③④|
⑤⑨⑩⑥ |⑤⑥⑦⑧|
⑦③④⑧ |⑨⑩⑪⑫|
□⑪⑫□ |⑬---|
⑬⑬□□
□□□□
□□□□
□□□□
9
□□②⑦ |①-②-|
⑥□⑧④ |③-④⑤|
③⑨□⑤ |-⑥-⑦|
⑩□□① |⑧⑨⑩-|
10
⑨⑨②⑦ |①-②-|
⑥□□④ |③-④⑤|
③□□⑤ |-⑥-⑦|
⑧⑧□① |⑧-⑨-|
11
□□②⑪ |①-②-|
⑥□⑩□ |③-④⑤|
③⑨④⑦ |-⑥-⑦|
⑧□⑤① |⑧⑨⑩⑪|
12
□□②⑦ |①-②-|
⑥□⑧④ |③-④⑤|
③⑨□⑤ |-⑥-⑦|
⑩①□□ |⑧⑨⑩-|
13
□□②⑦ |①-②-|
⑥□⑧④ |③-④⑤|
③⑨□⑤ |-⑥-⑦|
⑩□①① |⑧⑨⑩-|
14
⑨⑨②⑦ |①-②-|
⑥□□④ |③-④⑤|
③□□⑤ |-⑥-⑦|
⑧⑧□① |⑧-⑨-|
15
□□②□ |①--②|
④③①② |--③-|
②①⑤③ |-④-⑤|
⑥□③① |⑥⑦⑧⑨|
□□□⑨
□□⑧□
□⑦□□
□□□□
16
□□□□ |①---|
②□□③ |----|
①⑥⑦□ |②③④⑤|
④⑧⑨⑤ |⑥⑦⑧⑨|
17
①①□② |①---|
②□⑤□ |②-③-|
④□□③ |④-⑤-|
⑥□□⑦ |⑥-⑦-|
18
①□□□ |①---|
②□⑥□ |②---|
③□□⑤ |③-④-|
⑤□④□ |⑤-⑥-|
19
①□②① |①---|
②□⑦□ |②-③-|
④□③⑤ |④-⑤-|
⑥□□□ |⑥-⑦-|
20
①□□□ |①---|
②□□⑥ |②---|
③□⑤□ |③-④-|
⑤□□④ |⑤-⑥-|
21
①□①② |①---|
②□⑤□ |②-③-|
④□□③ |④-⑤-|
⑥□⑦⑦ |⑥-⑦-|
22
①□⑥□ |①-②-|
③⑦④④ |③-④-|
⑤□②② |⑤-⑥-|
⑦□□□ |⑦-⑧-|
□□□□
□□□□
□□⑧□
□□□□
23
①□□□ |①---|
②□□□ |②---|
③□□□ |③---|
④□□□ |④---|
24
①□□⑥ |①---|
②□⑤□ |②---|
③□□④ |③-④-|
⑤□□□ |⑤-⑥-|
25
①④④□ |①--②|
③⑧□② |③-④-|
⑤②⑦□ |⑤-⑥-|
⑦⑥①① |⑦-⑧-|
26
①④④□ |①--②|
③⑧□② |③-④-|
⑤②⑦□ |⑤-⑥-|
⑦⑥①① |⑦-⑧-|
27
①④④① |①-②-|
③□③⑥ |③-④-|
⑤□⑦② |⑤-⑥-|
⑦□□⑧ |⑦-⑧-|
28
①⑥□□ |①---|
②□⑤□ |②---|
③□□④ |③-④-|
⑤□□□ |⑤-⑥-|
29
①⑥⑥① |①-②-|
③②□④ |③-④-|
⑤□③□ |⑤-⑥-|
⑦⑧⑧□ |⑦-⑧-|
30
①□□③ |①---|
②□④⑤ |②-③-|
④□⑥⑦ |④-⑤-|
⑥□□□ |⑥-⑦-|
31
①①□③ |①---|
②□□⑤ |②-③-|
④□⑦⑦ |④-⑤-|
⑥□□□ |⑥-⑦-|
32
①②□□ |①---|
②□③□ |②---|
③□⑤④ |③---|
④□□□ |④-⑤-|
33
①□①□ |①-②-|
③□□③ |③-④-|
⑤⑥□⑤ |⑤--⑥|
⑦□④② |⑦-⑧-|
□⑧⑧□
□□□□
□□□□
□□□□
34
①□□□ |①-②-|
③□②□ |③-④-|
⑤□□③ |⑤---|
⑥□④⑦ |⑥-⑦-|
35
①⑧⑧□ |①-②-|
③□①③ |③-④-|
⑤⑥④⑤ |⑤--⑥|
⑦□②□ |⑦-⑧-|
36
①□□□ |①-②-|
③②③□ |③---|
④⑥⑥□ |④---|
⑤②③⑥ |⑤-⑥-|
37
□①□① |--①-|
③⑤□③ |②-③-|
②⑦⑦⑤ |④-⑤-|
⑥④□⑦ |⑥-⑦-|
38
①②□② |①-②-|
③⑥□④ |③-④-|
⑤⑦⑦⑥ |⑤-⑥-|
□④□⑦ |--⑦-|
39
①④④② |①-②-|
②⑥□④ |③-④-|
⑤⑧⑧⑥ |⑤-⑥-|
⑦③□⑧ |⑦-⑧-|
40
①□□② |①-②-|
③⑧⑧④ |③-④-|
⑤□□⑥ |⑤-⑥-|
⑦⑦⑥⑧ |⑦-⑧-|
41
①③⑤② |--①-|
③□□□ |②---|
□①②□ |③-④-|
□④④□ |--⑤-|
42
②□□⑥ |①---|
□②⑥④ |②-③-|
③□④⑤ |--④-|
①③⑤① |⑤-⑥-|
43
④①①⑤ |--①-|
□⑥⑤□ |--②-|
④⑥③□ |③-④-|
②②□③ |⑤-⑥-|
44
④①①⑤ |①---|
①□□① |②-③-|
③□②□ |--④-|
③⑤④② |⑤-⑥-|
□⑥⑥□
□⑥⑥□
□□□□
□□□□
45
④□□⑤ |--①-|
①□□② |--②-|
⑥④⑤⑥ |③-④-|
⑥③③⑥ |⑤-⑥-|
46
□⑤④□ |--①-|
③①①② |--②-|
⑤□□④ |③-④-|
□③②□ |⑤-⑥-|
□□□□
□⑥⑥□
□⑥⑥□
□□□□
47
①□□② |--①-|
□□□⑤ |②-③-|
□④□□ |----|
②③③① |④-⑤-|
48
④①①④ |①-②-|
②④④□ |③-④-|
①⑤③① |--⑤-|
□□□□ |⑥-⑦-|
□□⑥□
□□□□
⑦□□⑦
□⑦⑦□
49
□②④□ |----|
②□□□ |①---|
□□□□ |②-③-|
①③③① |--④-|
50
②□□⑥ |①---|
□②⑥④ |②-③-|
③□④⑤ |--④-|
①③⑤① |⑤-⑥-|
51
④①①⑤ |--①-|
□⑥⑤□ |--②-|
④⑥③□ |③-④-|
②②□③ |⑤-⑥-|
52
④①①⑤ |①---|
①□□① |②-③-|
③□②□ |--④-|
③⑤④② |⑤-⑥-|
□⑥⑥□
□⑥⑥□
□□□□
□□□□
53
④□□⑤ |--①-|
①□□② |--②-|
⑥④⑤⑥ |③-④-|
⑥③③⑥ |⑤-⑥-|
54
□⑤④□ |--①-|
③①①② |--②-|
⑤□□④ |③-④-|
□③②□ |⑤-⑥-|
⑥□□⑥
□⑥⑥□
□□□□
□□□□
55
⑤□④④ |--①-|
③⑤□① |②-③-|
⑥②②⑥ |--④-|
①□□③ |⑤-⑥-|
56
②②□③ |----|
□□③□ |--①-|
□①□④ |②-③-|
①⑤⑤④ |④-⑤-|
57
□□④□ |----|
①□□① |①---|
③□□④ |②---|
②③□② |③-④-|
58
□①□□ |--①-|
①□□② |②---|
□□□□ |----|
□□②□ |----|
59
□□□□ |----|
□□③□ |----|
①②②③ |--①-|
□①□□ |②-③-|
60
①①①① |①-②-|
④②□③ |③-④-|
□□⑤□ |--⑤-|
②⑤③④ |⑥-⑦-|
⑦⑥□⑦
□□⑥□
⑦□□⑦
□□□□
61
⑦□⑤⑦ |--①-|
④⑦⑦□ |②-③-|
⑤③④⑥ |④-⑤-|
①⑥③② |⑥-⑦-|
62
⑧⑦⑦⑧ |①-②-|
□⑧⑧⑤ |③-④-|
⑥④③⑦ |⑤-⑥-|
②⑥⑥① |⑦-⑧-|
63
□⑦⑧□ |①-②-|
①□□⑥ |③-④-|
□⑤②□ |⑤-⑥-|
③□□④ |⑦-⑧-|
64
□⑥□② |①-②-|
⑧③④⑨ |③④⑤-|
⑩⑤□⑪ |⑥-⑦-|
①□⑦□ |⑧⑨⑩⑪|
65
⑦□□② |①-②-|
□⑤⑥□ |③④⑤⑥|
□③④□ |⑦-⑧-|
□①□⑧ |⑨-⑩-|
□□⑩□
□□□□
□□□□
□⑨□□
66
□⑥□② |①-②-|
⑧③④⑨ |③④⑤-|
⑩⑤□⑪ |⑥-⑦-|
①□⑦□ |⑧⑨⑩⑪|
67
⑦□□② |①-②-|
□⑤⑥□ |③④⑤⑥|
□③④□ |⑦-⑧-|
□①□⑧ |⑨-⑩-|
□□⑩□
□□□□
□□□□
□⑨□□
68
□⑥□② |①-②-|
⑧③④⑨ |③④⑤-|
⑩⑤□⑪ |⑥-⑦-|
①□⑦□ |⑧⑨⑩⑪|
69
⑦□□② |①-②-|
□⑤⑥□ |③④⑤⑥|
□③④□ |⑦-⑧-|
□①□⑧ |⑨-⑩-|
□□⑩□
□□□□
□□□□
□⑨□□
70
□②⑦□ |①-②③|
⑥⑧③① |④-⑤-|
⑥④⑨① |⑥-⑦⑧|
⑩□□⑤ |⑨-⑩-|
71
⑥②□⑥ |①-②③|
□□③① |④-⑤-|
□④□① |⑥---|
□□□⑤ |⑦---|
□□□□
⑦□□⑦
□□□□
□□□□
72
⑥⑨②□ |①-②-|
⑧④②⑦ |③④⑤-|
③⑥⑤□ |⑥-⑦-|
①①⑦□ |⑧⑨⑩⑪|
□□□□
□□⑩□
□□□⑪
□□□□
73
⑦⑨②② |①-②-|
⑦④□⑥ |③④⑤⑥|
③⑨⑤□ |⑦-⑧-|
①①⑧⑧ |⑨-⑩-|
□□□⑩
□□□□
□□□⑩
□□□□
74
⑥⑨②□ |①-②-|
⑧④②⑦ |③④⑤-|
③⑥⑤□ |⑥-⑦-|
①①⑦□ |⑧⑨⑩⑪|
□□□□
□□⑩□
□□□⑪
□□□□
75
⑦⑨②② |①-②-|
⑦④□⑥ |③④⑤⑥|
③⑨⑤□ |⑦-⑧-|
①①⑧⑧ |⑨-⑩-|
□□□⑩
□□□□
□□□⑩
□□□□
76
⑥⑨②□ |①-②-|
⑧④②⑦ |③④⑤-|
③⑥⑤□ |⑥-⑦-|
①①⑦□ |⑧⑨⑩⑪|
□□□□
□□⑩□
□□□⑪
□□□□
77
⑦□②② |①-②-|
⑦④□⑥ |③④⑤⑥|
③□⑤□ |⑦-⑧-|
①①⑧⑧ |⑨-⑩-|
□□□□
□□⑩□
□⑨□⑩
⑨□□□
78
⑦①①⑥ |①-②③|
⑧②□⑥ |④-⑤-|
⑨□③⑪ |⑥--⑦⑧⑨|
⑩④⑤⑤ |⑩-⑪-|
79
□④②⑩ |①-②-|
⑤①①⑥ |③-④-|
⑦③③⑧ |⑤⑥⑦⑧|
⑨□□□ |⑨-⑩-|
80
□□□□ |①---|
□□□□ |----|
□□□□ |----|
□①①□ |----|
最終更新:2025年11月10日 02:23