アットウィキロゴ
BPM:170
1
②③④⑤ |①---|
□①①□ |--②-|
□①①□ |③-④-|
⑤④③② |⑤---|
2
①②③④ |--①-|
②□□⑤ |②-③-|
③□□⑥ |④-⑤-|
④⑤⑥⑦ |⑥-⑦-|
3
⑤④③② |①---|
⑥①①□ |--②-|
□①①⑥ |③-④-|
②③④⑤ |⑤-⑥-|
4
④⑤□③ |--①-|
□②①⑤ |②-③-|
⑤①②□ |④---|
③□⑤④ |⑤---|
5
□⑥□③ |①-②-|
②□⑤□ |③---|
□①①□ |④-⑤-|
④□□□ |⑥---|
6
②□□⑤ |①-②-|
⑥②④□ |--③-|
□□□① |④-⑤-|
⑦③①□ |⑥-⑦-|
7
③⑤□□ |①-②-|
□□⑥② |③---|
□①①□ |④-⑤-|
□□□④ |⑥---|
8
□⑤②□ |①-②③|
□③□□ |④-⑤-|
⑤□④□ |⑥-⑦-|
①①□□ |⑧-⑨-|

□□□□
□□⑨⑥
□□□□
⑧⑧⑥⑦
9
①□③① |①---|
②□□□ |②-③-|
②①①□ |④-⑤-|
□□□□ |⑥-⑦-|

□⑥□□
□④□⑥
□□⑦④
④⑤□⑥
10
①⑥③② |①-②-|
④③⑤⑥ |③---|
⑥①⑦③ |④-⑤-|
③④①□ |⑥-⑦-|
11
①□①□ |①---|
②②□□ |②-③-|
□①□① |④-⑤-|
□③□□ |⑥-⑦-|

□④□④
□□⑥□
④⑦⑤⑥
⑥□□□
12
①□①□ |①---|
②①□① |②---|
②□□□ |③-④-|
□□□□ |⑤-⑥-|

⑥□⑤□
□⑤□□
□④□⑤
□□③③
13
□①□① |①---|
□□□③ |②-③-|
①□①□ |④-⑤-|
②②□□ |⑥-⑦-|

⑤⑥□□
④□④□
□⑥⑦□
□□⑥④
14
□□□② |①-②-|
③①□③ |③---|
①□□① |④-⑤-|
③□□③ |⑥-⑦-|

□⑥□⑦
□□⑥□
⑥④□□
□④⑤□
15
①□□□ |①---|
□①□③ |②-③-|
□□①□ |④-⑤-|
②②□① |⑥---|

⑥□④□
④□⑥□
□⑥□④
□□⑤⑥
16
□□□① |①---|
□①□④ |----|
□③①□ |--②-|
①□②□ |③-④-|
17
①①□② |①-②③|
⑤□③□ |④-⑤-|
□□④□ |⑥-⑦-|
□□□□ |⑧-⑨-|

□⑨⑥□
□□□□
□□□□
□⑦□⑧
18
②④②④ |①---|
④②④② |②---|
□③①③ |③---|
③□③□ |④---|
19
②⑥⑨□ |①-②③|
□③□⑤ |④-⑤-|
①④①⑦ |⑥-⑦-|
⑧①□① |⑧-⑨-|
20
□⑤□② |①-②③|
⑤□③□ |④-⑤-|
①①④⑥ |⑥---|
□□⑥□ |⑦-⑧-|

□□□□
□□□□
⑧□□□
□□□⑦
21
②□①① |①-②③|
□③□⑤ |④-⑤-|
⑧④□⑦ |⑥-⑦-|
⑥⑥⑨□ |⑧-⑨-|
22
□②□② |①---|
②①②□ |②---|
□□□□ |③---|
□□□□ |④---|

④□④□
□④□④
③□③□
□③□③
23
□□□② |①-②③|
⑤□③□ |④-⑤-|
□①④① |⑥-⑦-|
①□①□ |⑧---|

□□⑥□
□⑦□⑥
⑦□□⑧
□□⑧□
24
□□□□ |①-②-|
③□□□ |③---|
□□□□ |④-⑤-|
①②□① |--⑥-|

□□□⑤
□□□□
□□④□
⑥□□□
25
⑤□③□ |①---|
□①□□ |②-③-|
□④□② |--④-|
□□□□ |⑤---|
26
□④□□ |①-②-|
③□□② |③-④-|
□□□□ |⑤-⑥-|
□□①□ |⑦-⑧-|

□□□□
□□⑥□
□⑤□⑧
□□⑦□
27
□□□□ |①-②-|
③□□□ |③---|
□□□□ |④-⑤-|
①②□① |--⑥-|

□□□⑤
□□□□
□□④□
⑥□□□
28
⑤□③□ |①---|
□①□□ |②-③-|
□④□② |--④-|
□□□□ |⑤---|
29
□④□□ |①-②-|
③□⑥② |③-④-|
⑤□□□ |⑤---|
□⑤①⑥ |⑥---|
30
①④③□ |①---|
④□□⑥ |②-③-|
□①□③ |④---|
⑤□②□ |⑤-⑥-|
31
①□□① |①---|
②④③□ |②---|
③□①② |③---|
□②⑤③ |④-⑤-|
32
□④③□ |①---|
④□□⑥ |②-③-|
⑤①①③ |④---|
②□□⑥ |⑤-⑥-|
33
②□□② |①---|
□③②□ |②---|
□①③□ |③---|
①□①□ |④-⑤-|

□□□□
⑤□□□
□□□④
□⑤④□
34
□③①□ |①---|
□□⑥① |②-③-|
③□□⑥ |④---|
②⑤④④ |⑤-⑥-|
35
①③□□ |①-②-|
③①□② |③---|
□□②□ |④---|
□□□□ |⑤-⑥-|

□□□④
□⑤□□
⑤□□⑥
④□⑥□
36
①③③② |①---|
②□①□ |②---|
□①②□ |③---|
□②□① |④-⑤-|

□□□□
□④□□
④□□⑤
□□□⑤
37
①②②③ |①---|
②⑤④② |②---|
⑥①□□ |③-④-|
④⑤⑥□ |⑤-⑥-|
38
①③③□ |①---|
⑥□□③ |②-③-|
⑤②④⑥ |④---|
④④□① |⑤-⑥-|
39
①④③② |①---|
□②①③ |②---|
③①②□ |③---|
②③⑤① |④-⑤-|
40
①□⑤④ |①---|
①④③□ |②-③-|
②③④① |④---|
④⑥⑥① |⑤-⑥-|
41
①⑤⑤③ |①---|
②③②① |②---|
①②③② |③---|
③④④① |④-⑤-|
42
①□□③ |①---|
①②④④ |②-③-|
④④□① |④---|
③□□① |⑤-⑥-|

□□□□
□□□□
□□□⑤
□⑥⑥□
43
①③③② |①---|
□①②□ |②---|
③②①③ |③---|
②□□① |④-⑤-|

□□□□
□④□④
□□⑤□
□□④□
44
②②②② |①---|
③□①□ |----|
□④□□ |②---|
□①□① |③-④-|
45
□□□□ |①---|
③□□③ |----|
②④④② |②---|
①③③□ |③-④-|
46
②②②② |①---|
□①①□ |----|
②□□② |②---|
①□□① |----|
47
□□□□ |----|
□□③□ |----|
□□□□ |--①-|
②②□① |②-③-|
48
①□③① |①---|
②□□□ |②-③-|
②①①□ |④-⑤-|
□□□□ |⑥-⑦-|

□⑥□□
□④□⑥
□□⑦④
④⑤□⑥
49
①⑥③② |①-②-|
④③⑤⑥ |③---|
⑥①⑦③ |④-⑤-|
③④①□ |⑥-⑦-|
50
①□①□ |①---|
②②□□ |②-③-|
□①□① |④-⑤-|
□③□□ |⑥-⑦-|

□④□④
□□⑥□
④⑦⑤⑥
⑥□□□
51
①□①□ |①---|
②①□① |②---|
②□□□ |③-④-|
□□□□ |⑤-⑥-|

⑥□⑤□
□⑤□□
□④□⑤
□□③③
52
□①□① |①---|
□□□③ |②-③-|
①□①□ |④-⑤-|
②②□□ |⑥-⑦-|

⑤⑥□□
④□④□
□⑥⑦□
□□⑥④
53
□□□② |①-②-|
③①□③ |③---|
①□□① |④-⑤-|
③□□③ |⑥-⑦-|

□⑥□⑦
□□⑥□
⑥④□□
□④⑤□
54
①□□□ |①---|
□①□③ |②-③-|
□□①□ |④-⑤-|
②②□① |⑥---|

⑥□④⑥
④⑥⑥□
□□□④
□□⑤□
55
□□□□ |①---|
□□□□ |②---|
②①①② |③-④-|
①□□① |⑤-⑥-|

□□□□
③□⑥③
□□□□
⑤⑤④□
56
①□③① |①---|
②□□□ |②-③-|
②①①□ |④-⑤-|
□□□□ |⑥-⑦-|

□⑥□□
□④□⑥
□□⑦④
④⑤□⑥
57
①⑥③② |①-②-|
④③⑤⑥ |③---|
⑥①⑦③ |④-⑤-|
③④①□ |⑥-⑦-|
58
①□①□ |①---|
②②□□ |②-③-|
□①□① |④-⑤-|
□③□□ |⑥-⑦-|

□④□④
□□⑥□
④⑦⑤⑥
⑥□□□
59
①□①□ |①---|
②①□① |②---|
②□□□ |③-④-|
□□□□ |⑤-⑥-|

⑥□⑤□
□⑤□□
□④□⑤
□□③③
60
□①□① |①---|
□□□③ |②-③-|
①□①□ |④-⑤-|
②②□□ |⑥-⑦-|

⑤⑥□□
④□④□
□⑥⑦□
□□⑥④
61
□□□② |①-②-|
③①□③ |③---|
①□□① |④-⑤-|
③□□③ |⑥-⑦-|

□⑥□⑦
□□⑥□
⑥④□□
□④⑤□
62
①□□□ |①---|
□①□③ |②-③-|
□□①□ |④-⑤-|
②②□① |⑥---|

⑥□④□
④□⑥□
□⑥□④
□□⑤⑥
60
□②②① |①---|
②①□② |----|
□□①□ |②---|
①□□□ |----|
61
②⑤□④ |①---|
□④②③ |--②-|
①①①① |③-④-|
③①①⑤ |⑤---|
62
□□①□ |①---|
①□□④ |----|
□③□① |--②-|
□①②□ |③-④-|
63
①①□② |①-②③|
⑤□③□ |④-⑤-|
□□④□ |⑥-⑦-|
□□□□ |⑧-⑨-|

□⑨⑥□
□□□□
□□□□
□⑦□⑧
64
②④②④ |①---|
④②④② |②---|
□③①③ |③---|
③□③□ |④---|
65
②⑥⑨□ |①-②③|
□③□⑤ |④-⑤-|
①④①⑦ |⑥-⑦-|
⑧①□① |⑧-⑨-|
66
①③□③ |①-②-|
□□□② |③---|
③□③□ |④---|
□□□□ |⑤---|

⑤□⑤□
④□④□
□⑤□⑤
□④□④
67
□□□□ |①-②③|
□①□① |④-⑤-|
②□③□ |⑥-⑦-|
①④①⑤ |⑧-⑨-|

⑧⑥⑦⑥
⑥□⑥□
⑨□□□
□□□□
68
□□□□ |①-②-|
□□□□ |③---|
□①②① |④-⑤-|
①③①□ |⑥-⑦-|

④⑤④□
□④□④
⑥□□⑦
□□□□
69
⑤□□② |①-②③|
①□③□ |④-⑤-|
□□④□ |⑥-⑦-|
□□□□ |⑧---|

□□□□
⑧⑧□⑧
⑦⑦□⑦
⑥⑥□⑥
70
②③□⑤ |①-②③|
□□①□ |④-⑤-|
□□□□ |⑥-⑦-|
□④□□ |⑧---|

□□□□
⑧□⑧⑧
⑦□⑦⑦
⑥□⑥⑥
71
⑤⑧③② |①-②③|
⑧⑦□⑧ |④-⑤-|
⑦⑥□⑦ |⑥-⑦-|
⑥①④⑥ |⑧---|
72
□□□② |①-②③|
□⑦③□ |④-⑤⑥|
⑥□④□ |⑦-⑧-|
⑤①①⑧
73
①⑤④□ |①-②-|
⑤□□② |③-④-|
□①□④ |⑤-⑥-|
⑥③②□
74
④□□① |①②③-|
⑦⑦②□ |④-⑤-|
④⑤③□ |⑥-⑦-|
□□⑥⑥
75
④④⑤① |①②③-|
□□②⑤ |④-⑤-|
⑥□③⑥ |⑥---|
□□□□
76
□⑪⑫□ |①②③④|
⑦⑧⑨⑩ |⑤⑥⑦⑧|
□⑤⑥□ |⑨⑩⑪⑫|
①②③④
77
①□□□ |①-②③|
⑧⑨⑩⑪ |④⑤⑥⑦|
②□□③ |⑧⑨⑩⑪|
④⑤⑥⑦
78
①①③③ |①-②-|
□□□□ |③-④-|
⑤⑤②□ |⑤-⑥-|
□④⑥□
79
①②□⑧ |①②③④|
□③④□ |⑤⑥⑦-|
□□⑤⑥ |⑧-⑨-|
⑨□□⑦
80
□□①□ |①---|
□□□① |----|
①□□□ |----|
□①□□
最終更新:2025年11月10日 01:46