アットウィキロゴ
SUPER HEROINE!! / Amateras Records vs BEMANI Sound Team "TATSUYA" feat. miko
BPM:186
Notes:764

1
③□②④ |①---|
①③④① |②---|
⑤⑤⑤⑤ |③--④|
①④③① |--⑤-|
2
□□⑤□ |--①-|
①□□② |②---|
□④□□ |③--④|
□□□③ |--⑤-|
3
□③④② |①---|
③□□④ |②---|
①□□① |③--④|
④①①③ |--⑤-|

□□□□
□□□□
⑤⑤⑤⑤
□□□□
4
①□⑤② |--①-|
□□□□ |②---|
□④□□ |③--④|
□□□③ |--⑤-|
5
③②□④ |①---|
①③④① |②---|
④□□③ |③--④|
□①①□ |--⑤-|

□□□□
⑤□□⑤
□□□□
⑤□□⑤
6
□①②□ |--①-|
□□□⑤ |②---|
□④□□ |③--④|
□□③□ |--⑤-|
7
①③④① |①---|
③①①④ |②---|
④□□③ |③--④|
②④③□ |--⑤-|

□□□□
□⑤⑤□
□⑤⑤□
□□□□
8
②④④① |①---|
③□□③ |②---|
③□□③ |③---|
②④④① |④---|
9
④⑯⑮⑤ |①②③④|
⑩⑧⑬⑨ |⑤⑥⑦⑧|
⑥②③⑦ |⑨⑩⑪⑫|
⑭⑫⑪① |⑬⑭⑮⑯|
10
②□⑬③ |①②③④|
⑧⑥⑮⑨ |⑤⑥⑦⑧|
④⑭①⑦ |⑨⑩⑪⑫|
⑫⑩⑪⑤ |⑬⑭⑮⑯|

⑯□□□
□□□□
□□□□
□□□□
11
□②⑬① |①②③④|
⑥⑫⑮⑦ |⑤⑥⑦⑧|
④⑭③⑤ |⑨⑩⑪⑫|
⑩⑧⑪⑨ |⑬⑭⑮⑯|

□⑯□□
□□□□
□□□□
□□□□
12
②⑯⑮① |①②③④|
⑥⑭⑬⑤ |⑤⑥⑦⑧|
④⑫⑪③ |⑨⑩⑪⑫|
⑧⑩⑨⑦ |⑬⑭⑮⑯|
13
②□⑮⑤ |①②③④|
⑥⑫⑪③ |⑤⑥⑦⑧|
④⑩⑬① |⑨⑩⑪⑫|
⑭⑧⑦⑨ |⑬⑭⑮⑯|

⑯□□□
□□□□
□□□□
□□□□
14
□⑧□⑦ |①②③④|
④⑫⑨③ |⑤⑥⑦⑧|
②⑩⑪① |⑨⑩⑪⑫|
⑭⑥⑤⑬ |⑬⑭⑮⑯|

□□□□
□□□□
⑯□□⑮
□□□□
15
②⑥①⑤ |①②③④|
⑧⑫⑪⑦ |⑤⑥⑦⑧|
⑭⑩⑨⑬ |⑨⑩⑪⑫|
⑯④③⑮ |⑬⑭⑮⑯|
16
⑩④③⑨ |①②③④|
⑥⑭⑬⑤ |⑤⑥⑦⑧|
⑫⑧⑦⑪ |⑨⑩⑪⑫|
⑯②①⑮ |⑬⑭⑮⑯|
17
④①①□ |①---|
②□□③ |----|
□□□□ |②--③|
④②③□ |--④-|
18
□□□① |①---|
□□□□ |----|
□□□□ |----|
□□□① |----|
19
⑤③②④ |①---|
①□□① |----|
①□□① |②-③-|
⑤③②④ |④-⑤-|
20
□④□④ |①---|
③□①① |②---|
□②□□ |③---|
□□□□ |④---|
21
□□□□ |①---|
□□□□ |②-③-|
∨□□□ |④---|
①□①□ |⑤---|

□□□□
□③□□
□∨□④
②④□②

□□□□
□□□□
□□⑤□
□⑤□□
22
□□□□ |①---|
①□①□ |②---|
∧□□□ |③-④-|
□□□□ |⑤-⑥-|

④⑥□□
②□□②
⑤③⑤③
□□□□
23
□□□□ |①---|
□□①□ |②-③-|
□∨□□ |④---|
□①□□ |⑤---|

∨□⑤④
|③□②
|□□□
④②□□
24
□③⑥□ |①-②-|
③⑤②⑥ |③---|
④②⑤① |④-⑤-|
④④①□ |⑥---|
25
□□□□ |①---|
□∨□□ |②-③-|
□①□□ |④---|
□□①□ |⑤---|

③□□□
∨□□□
④②□④
□□□②

□□□□
□□□□
⑤□⑤□
□□□□
26
□①□□ |①---|
□∧①□ |②---|
□□□□ |③-④-|
□□□□ |⑤-⑥-|

□②⑤③
④⑥□②
⑤③□□
□□□□
27
①□□④ |①-②-|
|□③□ |③-④-|
|□□② |⑤-⑥-|
∧□①□ |⑦-⑧-|

⑤∨□□
⑥|□⑤
□⑧⑥□
⑦□⑧⑦
28
□□④③ |①-②-|
□□②⑥ |③-④-|
□⑦⑤① |⑤-⑥-|
□□⑦⑧ |⑦-⑧-|
29
□□□□ |①---|
□□①□ |②-③-|
∨□□□ |④---|
①□□□ |⑤---|

□□□□
□③□④
□∨□②
②④□□

□□□□
□□□□
□□⑤□
□⑤□□
30
□□□□ |①---|
①□□□ |②---|
∧□□□ |③-④-|
□□①□ |⑤-⑥-|

④⑥□□
②□□□
⑤③⑤②
□□□③
31
□□□□ |①---|
□□①□ |②-③-|
□∨□□ |④---|
□①□□ |⑤---|

∨□⑤②
|③□④
|□□□
④②□□
32
⑥③⑤② |①-②-|
③⑥②⑤ |③---|
□□④① |④-⑤-|
④□①④ |⑥---|
33
□□□□ |①---|
□□□□ |②-③-|
□∨□□ |④---|
□①①□ |⑤---|

□□□□
③□④□
∨□□②
④②□□

□□□⑤
□□□□
□□□□
⑤□□□
34
□①□□ |①---|
□∧□□ |②---|
□□□□ |③-④-|
□□□① |⑤-⑥-|

□②⑤□
□⑥□③
④□②□
⑤③□□
35
①□□□ |①---|
|□□□ |②---|
|□□① |--③-|
∧□□□ |④-⑤-|

②□□□
□⑤⑤□
□④④□
□③③□
36
②③③① |①---|
□□□□ |②---|
□□□□ |③---|
②③③① |----|
37
③③□① |①---|
□□□| |--②-|
①②□| |③---|
□□□∧ |----|
38
□□□① |①---|
④□④< |--②③|
③□□□ |④---|
②①□□ |⑤---|

□□□□
□□⑤□
□⑤□□
□□□□
39
□□□∨ |①---|
③③□| |--②-|
□□□| |③---|
②①□① |----|
40
□④□□ |①---|
□③>④ |--②③|
①②□□ |④---|
□□□① |⑤---|

□□□□
⑤□□⑤
□□□□
□□□□
41
③③∨□ |①---|
□□|□ |--②-|
①②|□ |③---|
□□①□ |----|
42
□□□□ |①---|
④□□□ |--②③|
③□>④ |④---|
②①①□ |⑤---|

□□□□
□□□□
□⑤□⑤
□□□□
43
□□□① |①---|
□□□| |--②-|
□□□| |③---|
②①□∧ |----|

□□□③
③③□□
□□□□
□□□□
44
③①②④ |①---|
□□□□ |②---|
□□□□ |③---|
③①②④ |④---|
45
□□□□ |①---|
□□∨□ |--②-|
②①①□ |③---|
□□□□ |----|

③③□□
□□□□
□□③□
□□□□
46
□□□□ |①---|
□□①□ |--②③|
□③∧□ |④---|
①②□□ |⑤---|

□□□□
□④④□
⑤□□□
□□□□
47
□□□□ |①---|
□□□□ |--②-|
□□□∨ |③---|
①②□① |----|

□□□□
③③□□
□□□□
□□□③
48
□□□① |①---|
③□□∧ |--②③|
②①□□ |④---|
□□□□ |⑤---|

④□□④
□⑤□□
□□□□
□□□□
49
□□□□ |①②--|
□□∨□ |--③-|
□①①□ |④---|
――① |----|

④④□□
□□□□
③□④□
□□□②
50
□□□□ |①---|
□□①□ |--②③|
□③∧□ |④---|
①②□□ |⑤---|

□□□□
□④④□
⑤□□□
□□□□
51
□□□□ |①---|
□□□□ |②-③-|
□□□∨ |④---|
①□□① |⑤---|

□□□□
④④□④
□□□∧
□③□②

□□□□
□□□⑤
□□□□
□□□□
52
□①□① |①---|
□□①□ |----|
□①□① |----|
□□□□ |----|
53
①□①□ |----|
□②□□ |----|
③□③□ |①-②-|
□④□□ |③-④-|
54
□⑥⑤□ |①-②-|
①□③④ |③---|
□②□④ |④-⑤-|
①⑥⑤③ |⑥-⑦-|

⑦□□□
□□□□
□□□□
⑦□□□
55
□□⑤① |①---|
②□③□ |②---|
②③①④ |③-④-|
⑤□⑥□ |⑤-⑥-|
56
③③□⑦ |①-②-|
④②⑥① |③---|
□⑤①□ |④-⑤-|
□④⑥⑦ |⑥-⑦-|
57
①□②□ |--①-|
□②□③ |--②-|
□④②□ |----|
①②③□ |③-④-|
58
⑥□②□ |①---|
②⑤□⑤ |②-③-|
①□③□ |--④-|
①③□④ |⑤-⑥-|
59
□①□① |①-②-|
□⑤②□ |③-④-|
⑤③⑤③ |----|
□⑤④□ |⑤---|
60
②④④③ |①---|
①□□① |②-③-|
□□□□ |--④-|
②④④③ |--⑤-|

□□□□
⑤□□⑤
⑤□□⑤
□□□□
61
①④⑤③ |--①-|
⑩□②⑪ |②-③-|
⑧①③⑨ |④⑤⑥⑦|
□⑥⑦□ |⑧⑨⑩⑪|
62
⑦⑦⑤④ |①-②-|
□③□□ |③---|
⑥②④□ |④-⑤-|
①□□③ |⑥-⑦-|
63
□⑤⑤□ |①---|
②□□③ |②---|
⑥②③□ |③-④-|
①③②④ |⑤-⑥-|
64
③□⑥① |①-②-|
□④②□ |③---|
□③□① |④-⑤-|
□④⑤□ |⑥-⑦-|

□□□⑦
□□□⑦
□□□⑦
□□□⑦
65
①□□□ |--①-|
①②②□ |--②-|
①②②④ |----|
①③□□ |③-④-|
66
□①⑥② |①---|
⑤□□② |②-③-|
①④③□ |--④-|
④□□□ |⑤-⑥-|
67
□□□□ |①-②-|
□③②□ |③-④-|
④⑤⑤□ |----|
□①④① |⑤---|
68
①②③① |①---|
④⑤⑤④ |②-③-|
⑤□□⑤ |--④-|
②④④③ |--⑤-|
69
□①②□ |----|
①②□□ |----|
□□①② |①---|
□□□□ |②---|
70
――① |①---|
③□□□ |②---|
②□□□ |③---|
①□□□ |④---|

④□□□
□□□□
□□□□
□□□□
71
□④□□ |①---|
□③□□ |②---|
□②□□ |③---|
□①□□ |④---|
72
□□④① |①---|
□□③□ |②---|
□□②□ |③---|
□□①□ |④---|
73
⑥□□⑦ |①---|
⑧□③⑨ |②---|
□④□② |③④⑤-|
□□⑤① |⑥⑦⑧⑨|
74
□□④□ |①-②-|
⑦③⑥□ |③-④-|
□⑤□□ |⑤-⑥-|
①①⑧② |⑦-⑧-|
75
⑦①□④ |①-②-|
□③□□ |③-④-|
①□⑧⑥ |⑤-⑥-|
□⑤□② |⑦-⑧-|
76
⑫③②⑧ |①-②③|
①□⑥⑨ |④⑤⑥⑦|
□⑤□⑩ |⑧⑨⑩⑪|
①⑦④⑪ |⑫⑬⑭⑮|

□□□□
⑬□□□
⑭□□□
⑮□□□
77
④□□③ |①---|
□①②□ |②---|
□②①□ |③---|
④□□③ |④---|
78
①①< |①---|
□①∨□ |----|
□∧①□ |----|
①①< |----|
79
□□□□ |----|
□□□□ |----|
□□□□ |----|
□□□□ |----|
80
□①①□ |①---|
□①□□ |----|
□□①□ |----|
□①①□ |----|
最終更新:2025年11月10日 02:22