アットウィキロゴ
Icicle Cube / BEMANI Sound Team "KE!JU”
BPM:175
Notes:911

1
②□□③ |①---|
□①①□ |--②-|
□①①□ |----|
□□□□ |③---|
2
□□□□ |①---|
③□□□ |--②-|
□□□② |----|
□①①□ |③---|
3
⑦②□③ |①---|
⑧□□④ |--②-|
□①①⑤ |--③④|
□□□⑥ |⑤⑥⑦⑧|
4
□⑦③□ |①②③④|
□⑧④□ |⑤⑥⑦⑧|
①⑨⑤□ |⑨⑩--|
②⑩⑥□ |----|
5
□□□□ |①---|
□②③□ |--②-|
□□□□ |----|
①□□① |③---|
6
①□□① |①---|
□□□□ |--②-|
□②③□ |----|
□□□□ |③---|
7
□②③□ |①---|
□□□□ |--②-|
□□□□ |----|
①□□① |③---|
8
④⑨⑬⑧ |①②③④|
③⑩⑭⑦ |⑤⑥⑦⑧|
②⑪⑮⑥ |⑨⑩⑪⑫|
①⑫⑯⑤ |⑬⑭⑮⑯|
9
②⑥⑨⑧ |①-②③|
□⑫□③ |④⑤⑥-|
④⑦⑪□ |⑦⑧-⑨|
①⑩□⑤ |⑩⑪⑫-|
10
②⑥⑨⑧ |①-②③|
□⑫□③ |④⑤⑥-|
④⑦⑪□ |⑦⑧-⑨|
①⑩□⑤ |⑩⑪⑫-|
11
②⑥⑨⑧ |①-②③|
□⑫□③ |④⑤⑥-|
④⑦⑪□ |⑦⑧-⑨|
①⑩□⑤ |⑩⑪⑫-|
12
②⑦⑧□ |①-②③|
⑥⑪⑫③ |④⑤⑥-|
④⑨⑩□ |⑦⑧⑨⑩|
①⑬⑭⑤ |⑪⑫⑬⑭|
13
②⑥⑩⑧ |①-②③|
⑨⑬□③ |④⑤⑥-|
④⑦⑫□ |⑦⑧⑨⑩|
①⑪□⑤ |⑪⑫⑬-|
14
②⑥⑩⑧ |①-②③|
⑨⑬□③ |④⑤⑥-|
④⑦⑫□ |⑦⑧⑨⑩|
①⑪□⑤ |⑪⑫⑬-|
15
⑭④⑨⑬ |①②③④|
⑫□③□ |⑤⑥⑦⑧|
②⑥⑪① |⑨⑩⑪⑫|
⑧⑩⑤⑦ |⑬⑭⑮⑯|

□□□□
□⑯□□
□□□⑮
□□□□
16
⑪②⑦□ |①②③④|
⑩□⑤① |⑤-⑥⑦|
⑨④□⑬ |⑧⑨⑩⑪|
⑧⑥③⑫ |⑫⑬⑭⑮|

□□□⑮
□□□⑭
□□□□
□□□□
17
⑧□③□ |①---|
□⑤⑥⑦ |②-③-|
□①①□ |④⑤⑥⑦|
④②⑩⑨ |⑧-⑨⑩|
18
□④⑤⑥ |①---|
①□□⑧ |②-③-|
①□⑧③ |④⑤⑥-|
⑦②□□ |⑦-⑧-|
19
①⑤⑥⑦ |①---|
□①③□ |②-③-|
④□□□ |④⑤⑥⑦|
⑧②⑩⑨ |⑧-⑨⑩|
20
④③□⑧ |①---|
⑤①③⑨ |②-③-|
⑥□□⑩ |④⑤⑥⑦|
⑦②□⑪ |⑧⑨⑩⑪|
21
⑧□③□ |①---|
□⑤⑥⑦ |②-③-|
□①①□ |④⑤⑥⑦|
④②⑩⑨ |⑧-⑨⑩|
22
□④⑤⑥ |①---|
①□□⑧ |②-③-|
①□⑧③ |④⑤⑥-|
⑦②□□ |⑦-⑧-|
23
①⑤⑥⑦ |①---|
□①③□ |②-③-|
④□□□ |④⑤⑥⑦|
⑧②⑩⑨ |⑧-⑨⑩|
24
③□□□ |①-②-|
①④④⑤ |③-④-|
④□②④ |--⑤-|
⑤⑥□⑥ |⑥-⑦-|

□□□⑦
⑦□□□
□□□□
□□□□
25
②③④□ |①---|
⑩⑥⑥⑩ |②③④⑤|
⑤①①⑤ |--⑥-|
□⑨⑧⑦ |⑦⑧⑨⑩|
26
②③④□ |--①-|
⑦□⑧□ |②③④⑤|
⑤①①⑤ |--⑥-|
□□⑥□ |⑦-⑧-|
27
□②③④ |①---|
⑥□□⑥ |②③④⑤|
□⑤⑤□ |--⑥-|
①⑧⑦① |⑦⑧⑨⑩|

□□□□
□⑩⑩□
□□□□
⑨□□□
28
④□③⑧ |--①-|
⑤□□⑨ |②-③-|
⑥②□⑩ |④⑤⑥⑦|
⑦□□① |⑧⑨⑩⑪|

□□□□
□□□□
□□□□
□□□⑪
29
④③②□ |①---|
⑥①①⑥ |②③④⑤|
□⑤⑤□ |--⑥-|
□⑦⑧⑨ |⑦⑧⑨⑩|

□□□□
□⑩⑩□
□□□□
□□□□
30
④③②□ |--①-|
⑦□□⑧ |②③④⑤|
①⑤⑤① |--⑥-|
□□⑥□ |⑦-⑧-|
31
□④③② |①---|
⑦□□⑦ |②③④⑤|
⑤⑥⑥⑤ |--⑥-|
①□□① |⑦-⑧⑨|

□□□□
□□□□
□□□□
⑧⑨□□
32
④⑥⑦□ |①-②-|
⑥②①⑦ |③-④-|
④□⑤⑤ |--⑤-|
□□①③ |⑥-⑦-|
33
□⑥⑦□ |①---|
⑥□②□ |②③④-|
⑤③□⑦ |⑤--⑥|
①①④⑤ |--⑦-|
34
⑤□□① |①---|
⑦②⑥⑤ |②③④-|
□⑦③□ |⑤--⑥|
①④□⑥ |--⑦-|
35
□□②⑦ |①---|
⑥③□⑦ |②③④-|
①□④① |⑤--⑥|
⑥⑤⑤□ |--⑦-|
36
□②⑥□ |①---|
□⑦③⑥ |②③④-|
①④□① |⑤--⑥|
⑦⑤⑤□ |--⑦-|
37
⑤□⑦□ |①---|
⑥□②⑦ |②③④-|
①③□① |⑤--⑥|
⑥□④⑤ |--⑦-|
38
□□□⑤ |①---|
⑤②□⑥ |②③④-|
①□③① |⑤--⑥|
□④⑥□ |--⑦-|

□□□□
□□□□
⑦□□□
⑦□□□
39
⑤①⑥⑪ |①②③④|
⑩②⑦⑫ |⑤-⑥⑦|
□③⑧⑬ |⑧⑨⑩-|
□④⑨⑭ |⑪⑫⑬⑭|
40
⑨④⑤⑬ |①②③④|
⑩③⑥⑭ |⑤⑥⑦⑧|
⑪②⑦⑮ |⑨⑩⑪⑫|
⑫①⑧⑯ |⑬⑭⑮⑯|
41
⑥□⑤⑦ |①---|
□②②⑦ |②③④-|
⑥□③□ |⑤--⑥|
⑤①④□ |--⑦-|
42
⑤□□□ |①---|
①②②⑥ |②③④-|
□③□① |⑤--⑥|
□④⑥⑤ |--⑦-|

□□□□
⑦□□□
□□□□
⑦□□□
43
⑤②②⑦ |①---|
⑥□③⑦ |②③④-|
①□④① |⑤--⑥|
⑥□□⑤ |--⑦-|
44
⑤②②⑨ |①---|
⑥③□⑩ |②③④-|
⑦④□⑪ |⑤⑥⑦⑧|
⑧①①⑫ |⑨⑩⑪⑫|
45
⑥⑩④⑭ |①②③④|
⑦□③⑬ |⑤-⑥⑦|
⑧□②⑫ |⑧⑨⑩-|
⑨⑤①⑪ |⑪⑫⑬⑭|
46
⑥□④⑭ |①②③④|
⑦⑩③⑬ |⑤-⑥⑦|
⑧⑤②⑫ |⑧⑨⑩-|
⑨□①⑪ |⑪⑫⑬⑭|
47
⑥⑩④⑭ |①②③④|
⑦□③⑬ |⑤-⑥⑦|
⑧□②⑫ |⑧⑨⑩-|
⑨⑤①⑪ |⑪⑫⑬⑭|
48
⑨⑧⑦⑬ |①②③④|
⑩⑥⑤⑭ |⑤⑥⑦⑧|
⑪④③⑮ |⑨⑩⑪⑫|
⑫②①⑯ |⑬⑭⑮⑯|
49
□□□③ |①---|
②□□□ |--②-|
□①①□ |----|
□□□□ |③---|
50
□□□□ |--①-|
□③②□ |----|
□□□□ |②---|
□①□□ |③---|
51
③□□□ |①---|
④□□□ |--②-|
⑤②□□ |--③④|
①□□① |⑤⑥⑦⑧|

□□⑦□
□□⑧□
□□□□
⑥□□□
52
□③□⑦ |①②③④|
□④□⑧ |⑤⑥⑦⑧|
□⑤①⑨ |⑨⑩--|
□⑥②⑩ |----|
53
□①①□ |①---|
②□□□ |--②-|
□□□③ |----|
□□□□ |③---|
54
□□②□ |--①-|
□□□□ |----|
□③□□ |②---|
□①□□ |③---|
55
②□□□ |①---|
□□□□ |--②-|
□□③□ |----|
□①①□ |③---|
56
④⑨⑬⑧ |①②③④|
③⑩⑭⑦ |⑤⑥⑦⑧|
②⑪⑮⑥ |⑨⑩⑪⑫|
①⑫⑯⑤ |⑬⑭⑮⑯|
57
⑤⑤□□ |①---|
④□□③ |②-③-|
②□□□ |④---|
①□□□ |⑤---|
58
⑤□□□ |①-②-|
④□④□ |③---|
③□②□ |④---|
①□⑤□ |⑤---|
59
□□□⑤ |①---|
④□□⑥ |②-③-|
②□③⑦ |④-⑤⑥|
①□□① |⑦⑧⑨⑩|

□⑨□□
□⑩□□
□□□□
□□□⑧
60
⑪⑪③□ |①②③④|
⑦□④⑧ |⑤⑥--|
□①⑤□ |⑦⑧⑨⑩|
⑨②⑥⑩ |⑪---|
61
□□①⑦ |①-②-|
④⑧⑤□ |③-④-|
⑥②⑦① |⑤-⑥-|
□④③□ |⑦-⑧-|
62
②⑧③⑦ |①-②-|
□□⑤□ |③-④-|
⑧②⑦① |⑤-⑥-|
⑥④⑤□ |⑦-⑧-|
63
□□□□ |①-②-③-|
⑩④⑦① |④-⑤-⑥-|
⑪⑤⑧② |⑦-⑧-⑨-|
⑫⑥⑨③ |⑩-⑪-⑫-|
64
②□⑨① |①-②-|
□④⑤⑨ |③-④⑤|
□⑥⑦① |⑥⑦⑧-|
□⑧□③ |⑨---|
65
⑤□⑧① |①--②|
①□□⑥ |③-④-|
③⑤⑤② |⑤--⑥|
①⑦□④ |⑦-⑧-|
66
□⑤□□ |①--②|
□①②⑤ |③-④-|
③⑤⑥□ |⑤--⑥|
①⑦①④ |⑦-⑧-|

□□□□
□□□□
□□□□
□□⑧□
67
⑤□⑤① |①--②|
①□②⑧ |③-④-|
③⑤⑥□ |⑤--⑥|
①⑦□④ |⑦-⑧-|
68
□⑤□④ |①--②|
□①⑤□ |③-④-|
③⑤⑥② |⑤--⑥|
①⑦①⑧ |⑦-⑧-|
69
⑤□①⑤ |①--②|
①□□⑧ |③-④-|
③⑤⑥② |⑤--⑥|
①⑦④□ |⑦-⑧-|
70
□⑤⑧□ |①--②|
□①②□ |③-④-|
③⑤⑤⑥ |⑤--⑥|
①⑦④① |⑦-⑧-|
71
①③⑤③ |①--②|
③②①① |--③-|
②□⑤④ |④--⑤|
④⑤④② |--⑥-|

⑥□□□
□□⑥⑥
□□□□
□□□□
72
□⑨⑩④ |①②③④|
⑤⑬⑭□ |⑤⑥⑦⑧|
③①⑫⑥ |⑨⑩⑪⑫|
⑦⑪⑧② |⑬⑭⑮-|

□□□□
□□□□
□⑮□□
□□□□
73
①⑥⑥① |①②③④|
②□□② |⑤---|
③□⑦③ |⑥--⑦|
④⑧⑤④ |⑧-⑨⑩|

□□□□
□□⑩⑨
□□□□
□□□□
74
⑥⑤□② |①--②|
□①⑨□ |③-④-|
③⑤⑦④ |⑤-⑥⑦|
①⑧④⑨ |⑧-⑨-|
75
⑤□①⑤ |①--②|
①□⑧② |③-④-|
③⑤⑥□ |⑤--⑥|
①⑦④⑧ |⑦-⑧-|
76
⑦⑥③□ |①-②③|
②①⑧⑥ |④-⑤-|
④⑥□① |⑥-⑦⑧|
①⑨⑤⑩ |⑨-⑩-|
77
⑦⑦⑤⑤ |①-②③|
③③⑨⑨ |-④⑤-|
⑩⑥①④ |⑥⑦-⑧|
②□⑧□ |⑨-⑩-|
78
⑦⑥□⑤ |①-②③|
③□⑧⑨ |-④⑤-|
⑩⑦⑤④ |⑥⑦-⑧|
②③⑨① |⑨-⑩-|
79
⑤⑤①⑥ |①-②③|
④①⑦⑦ |-④⑤-|
⑧□③③ |⑥⑦-⑧|
⑨⑨□② |⑨-⑩-|

□□□□
□⑩□□
□□□□
□□□□
80
⑥⑧①⑨ |①②③④|
④⑭⑦⑬ |⑤⑥⑦⑧|
⑩②⑪⑮ |⑨⑩⑪⑫|
□⑫③⑤ |⑬⑭⑮⑯|

□□□□
□□□□
□⑯□□
□□□□
81
①□□□ |----|
①□□□ |①---|
□□□□ |----|
①□□□ |----|
最終更新:2025年11月10日 02:21