BPM:145
1
□□□□ |----|
①□□□ |----|
□②□□ |----|
□□③□ |①②③-|
2
③③①① |①--②|
③□□① |--③-|
④□②⑤ |--④-|
④②□⑤ |⑤---|
3
①①③③ |①--②|
①□□③ |--③-|
⑤②□④ |--④-|
⑤□②④ |⑤---|
4
③③①① |①--②|
③□□① |--③-|
④□②⑤ |--④-|
④②□⑤ |⑤---|
5
□②②□ |--①-|
③□□④ |②---|
③①①④ |③--④|
□③④□ |----|
6
①②③④ |--①②|
⑦□⑨⑨ |③④-⑤|
□⑥⑧⑧ |-⑥-⑦|
⑤□□□ |⑧-⑨-|
7
①②③④ |--①②|
□□□□ |③④-⑤|
□□□□ |-⑥-⑦|
□□□□ |⑧-⑨-|
⑨⑨□□
□□□⑦
⑧⑧⑥□
□□□⑤
8
⑦□□□ |--①②|
□⑥⑨⑨ |③④-⑤|
⑤□⑧⑧ |-⑥-⑦|
①②③④ |⑧-⑨-|
9
□□⑦□ |--①②|
⑥⑨⑨□ |③④-⑤|
□⑧⑧⑤ |-⑥-⑦|
①②③④ |⑧-⑨-|
10
⑦⑨⑧① |①-②③|
③□⑩② |④⑤⑥⑦|
⑤⑫⑫④ |⑧⑨⑩⑪|
⑪⑬⑬⑥ |⑫-⑬-|
11
⑪⑦⑧① |①-②③|
③⑬⑩② |④⑤⑥⑦|
⑤⑫⑫④ |⑧⑨⑩⑪|
⑨□⑬⑥ |⑫-⑬-|
12
⑦□⑧① |①-②③|
③⑨⑩② |④⑤⑥⑦|
⑤⑫⑫④ |⑧⑨⑩⑪|
⑪⑬⑬⑥ |⑫-⑬-|
13
④□□④ |--①-|
②②②② |②---|
①③③① |③--④|
⑤□□⑤ |--⑤-|
14
⑩□□⑤ |①-②③|
□④③② |④-⑤-|
⑥⑦⑧⑨ |⑥⑦⑧⑨|
□①①□ |⑩---|
15
□⑩⑩⑥ |①-②③|
⑤④③② |④⑤⑥-|
□⑨⑨□ |⑦⑧⑨-|
⑦①①⑧ |⑩---|
16
⑪□□⑥ |①-②③|
⑤④③② |④⑤⑥-|
⑦⑧⑨⑩ |⑦⑧⑨⑩|
□①①□ |⑪---|
17
□□□□ |①-②-|
⑤⑦⑦② |③-④-|
□⑥⑥④ |⑤-⑥-|
③①①□ |⑦---|
18
①□⑦① |①-②③|
□⑧⑨② |④⑤⑥-|
③⑩⑪④ |⑦⑧⑨⑩|
⑤□⑫⑥ |⑪-⑫-|
19
⑨⑨⑦① |①-②③|
⑦③⑧② |④⑤⑥-|
⑦⑤⑨④ |⑦-⑧-|
⑧⑧⑩⑥ |⑨-⑩-|
20
□□⑥① |①-②③|
⑥③⑦② |④-⑤-|
⑥□⑧④ |⑥-⑦-|
□□⑨⑤ |⑧-⑨-|
21
①⑥⑥① |--①-|
④②②④ |②-③-|
③□□③ |④-⑤-|
□⑤⑤□ |⑥---|
22
②□□□ |①-②③|
③□□□ |④⑤-⑥|
④□□□ |-⑦-⑧|
⑤□□① |⑨-⑩-|
⑩⑩⑦⑦
□□⑨□
□□⑥⑥
□⑧□□
23
□□③③ |①②-③|
□⑤⑤① |-④-⑤|
□②□□ |--⑥-|
④④□□ |⑦---|
□□□□
⑥□□⑦
⑥□□⑦
□□□□
24
□①□□ |--①②|
□②□□ |③④-⑤|
□③□□ |-⑥-⑦|
□④□□ |⑧-⑨-|
⑨⑨⑥⑥
□□□⑧
⑦□⑤⑤
□□□□
25
□□⑥□ |①-②-|
②②⑤□ |③④⑤⑥|
□□④□ |--⑦-|
①①③□ |⑧---|
□□□□
□□□□
⑧□□⑦
⑧□□⑦
26
□□□① |--①②|
□□□② |③④-⑤|
□□□③ |-⑥-⑦|
□□□④ |⑧-⑨-|
⑥⑥⑨⑨
□⑧□□
⑤⑤□□
□□⑦□
27
⑦□□⑧ |①-②-|
⑦□⑥⑧ |③④⑤⑥|
②②⑤④ |--⑦-|
①①□③ |⑧---|
28
④□□□ |--①②|
③□□□ |③④-⑤|
②□□□ |-⑥-⑦|
①□□□ |⑧-⑨-|
□⑥⑥□
⑨⑨⑧□
□⑤⑤□
□⑦□□
29
④③②① |--①-|
□⑥⑥□ |②-③-|
④③②① |④--⑤|
⑤□□⑤ |--⑥-|
30
③③①① |①--②|
③□□① |--③-|
④□②⑤ |--④-|
④②□⑤ |⑤---|
31
①①③③ |①--②|
①□□③ |--③-|
⑤②□④ |--④-|
⑤□②④ |⑤---|
32
③③①① |①--②|
③□□① |--③-|
④□②⑤ |--④-|
④②□⑤ |⑤---|
33
□②②□ |--①-|
□□□□ |②---|
□①①□ |③--④|
□□□□ |⑤---|
□□□□
③⑤⑤④
□⑤⑤□
□③④□
34
③①③① |①--②|
□□□□ |--③-|
③□□① |--④-|
②□□② |⑤---|
□□□□
□□④□
□⑤□④
□□⑤□
35
①③①③ |①--②|
□□□□ |--③-|
①□□③ |--④-|
②□□② |⑤---|
□□□□
□④□□
④□⑤□
□⑤□□
36
③①③① |①--②|
□□□□ |--③-|
③□□① |--④-|
②□□② |⑤---|
□□□□
□□④□
□⑤□④
□□⑤□
37
□③④□ |--①-|
②④③① |②---|
④□□③ |③--④|
②□□① |----|
38
②□⑤② |①---|
④□□□ |②---|
□⑥□④ |③-④-|
①□③① |⑤⑥--|
39
□①⑧① |①-②-|
□□③⑤ |③④-⑤|
⑥⑦⑥□ |--⑥-|
②④②⑤ |⑦⑧--|
40
⑤③□⑤ |①-②-|
□②□② |③④-⑤|
□□④□ |--⑥-|
①□□□ |⑦-⑧-|
□⑧⑥□
⑥□□⑧
□□□⑦
□⑦□□
41
②□⑤② |①-②-|
③⑤□□ |③④-⑤|
①□□□ |-⑥⑦⑧|
□□①④ |⑨-⑩-|
□□□□
⑩□□⑩
□⑨⑧□
□⑥⑦□
42
②⑤□② |①---|
□□□④ |②---|
④□⑥□ |③-④-|
①③□① |⑤⑥--|
43
①⑧①□ |①-②-|
⑤③□□ |③④-⑤|
□⑥⑦⑥ |--⑥-|
⑤②④② |⑦⑧--|
44
⑤⑥③⑤ |①-②-|
②□②⑥ |③④-⑤|
⑧④□⑦ |--⑥-|
□⑦⑧① |⑦-⑧-|
45
②□①□ |①-②-|
①③④□ |③④⑤⑥|
□⑤⑥□ |⑦--⑧|
□□□② |--⑨-|
□⑧⑨□
⑧□□⑨
⑨□□⑧
⑦⑨⑧□
46
③⑤④③ |①-②-|
⑥①①□ |-③--|
⑩②②⑦ |④⑤⑥-|
□⑨⑧□ |⑦⑧⑨⑩|
47
⑤□□⑤ |-①②③|
□□□□ |④-⑤-|
□③②□ |⑥⑦⑧⑨|
④□□① |⑩⑪⑫⑬|
□□□□
□⑥⑦⑧
⑫⑪⑩⑨
⑬□□□
48
①□□① |--①-|
④③②□ |-②③④|
□□□□ |⑤⑥⑦⑧|
□□□□ |⑨-⑩-|
⑩□□⑩
□□□□
⑤⑥⑦⑧
□□□⑨
49
□②⑤□ |①-②-|
⑤□③② |③④-⑤|
□□□□ |-⑥⑦-|
①④□□ |⑧⑨⑩-|
□□□□
□⑥□□
□⑨⑧□
⑩□⑦□
50
①②③□ |①②③-|
⑦⑥⑤④ |④⑤⑥⑦|
⑧⑨⑩⑪ |⑧⑨⑩⑪|
□□⑬⑫ |⑫⑬--|
51
⑧①⑦① |①-②③|
⑨②③⑦ |④⑤⑥⑦|
⑩⑤④□ |--⑧-⑨-|
⑪⑥□□ |⑩-⑪---|
52
□□□③ |①②③-|
□①②□ |④⑤⑥⑦|
□□□□ |⑧⑨⑩⑪|
□□□□ |--⑫-|
⑫□□⑫
□□□□
⑦⑥⑤④
⑧⑨⑩⑪
53
□①④□ |--①-|
①⑤②④ |②-③-|
⑤③⑥② |④-⑤-|
③□□⑥ |⑥---|
54
□⑥⑨④ |--①②|
□⑧③⑤ |③④-⑤|
⑥②⑦⑨ |-⑥-⑦|
①□⑤□ |⑧-⑨-|
55
□③□⑤ |①②-③|
⑤□②④ |-④-⑤|
③①⑤□ |----|
□⑤④□ |----|
56
④⑨⑥□ |--①②|
⑤③⑧□ |③④-⑤|
⑨⑦②⑥ |-⑥-⑦|
□⑤□① |⑧-⑨-|
57
⑥□□⑥ |①-②-|
②⑤□① |③④⑤⑥|
□□④□ |----|
□②①③ |----|
58
⑥□⑨④ |--①②|
□⑧③⑤ |③④-⑤|
⑥②⑦⑨ |-⑥-⑦|
①□□⑤ |⑧-⑨-|
59
⑥②□② |①-②-|
□□④□ |③④⑤⑥|
□⑤□□ |----|
①□①③ |----|
60
④⑨⑥□ |--①②|
⑤③⑧⑨ |③④-⑤|
⑨⑦②⑥ |-⑥-⑦|
□⑤⑨① |⑧-⑨-|
61
②□②□ |--①-|
③□□□ |②-③-|
□□□□ |④--⑤|
③①□① |--⑥-|
□□□④
□⑤⑥□
□□□④
□⑥⑤□
62
□①①□ |①---|
①□□① |----|
□①①□ |----|
□□□□ |----|
最終更新:2025年11月10日 01:48