アットウィキロゴ
Break through the clouds / Tomoyuki Uchida
BPM:150
Notes:865

1
□□□□ |----|
□□③□ |----|
□□□② |--①-|
□□①□ |②-③-|
2
①⑤③① |①-②③|
□□⑧□ |-④⑤-|
□②④⑦ |--⑥-|
□□⑥□ |⑦-⑧-|
3
①⑤③① |①-②③|
□□□□ |-④⑤-|
□②④⑥ |--⑥-|
□□□□ |⑦-⑧-|

□□□⑦
□□⑧□
□□□□
□□□□
4
①⑤③⑧ |①-②③|
□⑦□□ |-④⑤-|
□②④□ |-⑥⑦-|
□□⑥□ |⑧-⑨-|

□□□□
□□□□
□⑨□□
□□□□
5
①□□⑦ |①-②③|
④⑥⑨□ |④-⑤⑥|
⑧□③⑤ |⑦-⑧⑨|
②□□□ |⑩---|

⑩□□□
□□□□
□□□□
□□□□
6
□⑤③⑩ |①-②③|
□⑧□① |-④⑤-|
⑥②④⑨ |⑥⑦⑧-|
①□⑦□ |⑨-⑩-|
7
□⑤③⑧ |①-②③|
①⑦□□ |-④⑤-|
□②④⑨ |-⑥⑦-|
□□⑥□ |⑧-⑨-|
8
□⑤③⑩ |①-②③|
□⑧□□ |-④⑤-|
⑥②④⑨ |⑥⑦⑧-|
①□⑦□ |⑨-⑩-|
9
□④□□ |①②③-|
①⑤⑩□ |④⑤⑥⑦--|
□⑥②⑨ |--⑧-|
③⑦⑧□ |⑨-⑩-|
10
⑨⑥③① |①-②③|
⑦□⑩□ |④⑤⑥-|
④②⑤⑨ |⑦-⑧-|
①□⑧□ |⑨-⑩-|
11
□⑥③① |①-②③|
□□□□ |④⑤⑥-|
□②⑤⑧ |⑦-⑧-|
①④⑦□ |⑨-⑩-|

□□□⑨
□□⑩□
□□□□
□□□⑨
12
⑩⑥③⑩ |①-②③|
⑦⑨□□ |④⑤⑥-|
④②⑤□ |⑦⑧⑨-|
①□⑧□ |⑩-⑪-|

□□□□
□□□□
□⑪□□
□□□□
13
□②⑤⑧ |①-②③|
⑥⑨⑩③ |④-⑤⑥|
④□□⑦ |⑦-⑧⑨|
①④⑦⑩ |⑩---|
14
⑩⑥③⑪ |①-②③|
⑦⑨□① |④⑤⑥-|
④②⑤⑩ |⑦⑧⑨-|
①□⑧□ |⑩-⑪-|
15
□⑥③⑩ |①-②③|
□□⑪⑨ |④⑤⑥-|
⑧②⑤□ |⑦⑧⑨-|
①④⑦⑩ |⑩-⑪-|
16
⑩⑥③□ |①-②③|
⑦⑨□□ |④⑤⑥-|
④②⑤□ |⑦⑧⑨-|
①□⑧⑪ |⑩⑪⑫⑬|

□□□⑬
□□□□
□□□□
⑫□□□
17
③②①□ |①---|
□③②① |②---|
①②③□ |③---|
□①②③ |④---|

□□④□
④□□□
□□□④
□④□□
18
⑦□⑦① |①-②-|
⑤③①② |③-④-|
③①⑥□ |⑤-⑥-|
①⑤④□ |⑦-⑧⑨|

□□□□
□□□⑧
□□□⑨
□□□□
19
□□□④ |①--②|
□⑥②□ |③-④-|
□□□□ |⑤⑥--|
①③⑤① |⑦---|

□⑦⑦□
□□□□
□□□□
□□□⑦
20
⑧⑩⑦② |①-②-|
⑤□□③ |③-④-|
③⑥⑨④ |⑤-⑥⑦|
①□□⑤ |⑧⑨⑩-|
21
□□□⑧ |①-②③|
⑨⑥③□ |④⑤⑥-|
②□□⑤ |⑦-⑧-|
①④⑦⑨ |⑨-⑩-|

□□□□
□□□⑩
□□□□
□□□□
22
⑧⑨②□ |①-②-|
⑤□③⑦ |③-④-|
③⑥④□ |⑤-⑥⑦|
①□⑤□ |⑧⑨⑩⑪|

□□⑩⑪
□□□□
□□□□
□□□□
23
□□⑧□ |①-②③|
⑨⑥③□ |④⑤⑥-|
②□⑩⑤ |⑦-⑧-|
①④⑦⑨ |⑨-⑩-|
24
⑧⑩⑦② |①-②-|
⑤□□③ |③-④-|
③⑥⑨④ |⑤-⑥⑦|
①□□⑤ |⑧⑨⑩-|
25
□□⑨⑩ |①-②③|
□⑥③□ |④⑤⑥-|
②⑧□⑤ |⑦⑧⑨-|
①④⑦⑩ |⑩-⑪-|

□□□□
□□⑪□
□□□□
□□□□
26
⑩③⑪⑩ |①②③④|
⑦⑨⑫④ |⑤-⑥-|
⑤□②□ |⑦⑧⑨-|
①⑥⑧□ |⑩-⑪⑫|
27
□④□□ |①--②|
⑦⑤⑧② |③-④⑤|
□⑥①□ |⑥-⑦-|
①③⑥⑧ |⑧---|
28
⑧⑩⑦② |①-②-|
⑤□□③ |③-④-|
③⑥⑨④ |⑤-⑥⑦|
①□□⑤ |⑧⑨⑩-|
29
□□⑧□ |①-②③|
⑨⑥③□ |④⑤⑥-|
②□□⑤ |⑦-⑧-|
①④⑦⑨ |⑨-⑩-|

□□□□
□□⑩□
□□□□
□□□□
30
⑧⑩⑦② |①-②-|
⑤□□③ |③-④-|
③⑥⑨④ |⑤-⑥⑦|
①□□⑤ |⑧⑨⑩-|
31
□⑧⑧① |①---|
③④⑤① |②-③④|
①⑥⑥□ |⑤--⑥|
①②⑤⑦ |⑦-⑧-|
32
⑩⑫⑨① |①-②③|
⑦⑥③⑦ |④⑤⑥-|
④⑧⑪□ |⑦-⑧⑨|
①②⑤□ |⑩⑪⑫-|
33
□□□□ |①-②③|
□⑥③□ |④⑤⑥-|
②⑦⑦⑤ |⑦---|
①④⑦① |⑧-⑨⑩|

□⑨⑩□
□□□□
□□□□
□□□⑧
34
⑩⑫⑨① |①-②③|
⑦⑥③□ |④⑤⑥-|
④⑧⑪□ |⑦-⑧⑨|
①②⑤□ |⑩⑪⑫-|
35
⑥□□③ |①---|
□□□④ |②-③④|
⑧□□⑤ |⑤--⑥|
①②⑤⑦ |⑦-⑧-|
36
□③③□ |①---|
②①①② |----|
③①①③ |②---|
□②②□ |③-④-|

□□□□
□④□□
□□□□
□□□□
37
①⑧⑨① |①-②③|
④⑪⑤⑥ |④⑤⑥-|
⑦②③□ |⑦⑧⑨-|
⑩□□⑩ |⑩-⑪-|
38
①□⑪① |①-②③|
④⑧⑨□ |④⑤⑥-|
⑦□⑤⑥ |⑦⑧⑨-|
⑩②③⑩ |⑩-⑪-|
39
①□⑩① |①-②③|
④□⑤⑥ |④⑤⑥-|
⑦②③⑪ |⑦⑧⑨-|
⑩⑧⑨□ |⑩-⑪-|
40
①□⑧① |①-②③|
④□□□ |④⑤⑥-|
⑦②③□ |⑦---|
⑧□⑤⑥ |⑧-⑨-|

□□□□
□□□□
□⑨□□
□□□□
41
①□⑪① |①-②③|
④⑧⑨⑦ |④⑤⑥-|
⑦□⑤⑥ |⑦-⑧⑨|
⑩②③□ |⑩⑪⑫-|

□□□⑫
□□□□
□□□□
□□□□
42
①□□□ |①-②③|
④⑥⑥□ |④⑤--|
⑥②③⑥ |⑥---|
□□⑤① |⑦-⑧-|

□□⑧□
□□□□
□□□□
⑦□□⑦
43
①□□① |①---|
⑥④⑤⑦ |②③④⑤|
⑧②③⑨ |⑥⑦⑧⑨|
⑩⑫□⑪ |⑩⑪⑫-|
44
①⑧⑨① |①--②|
③□□④ |③-④⑤|
⑥□②⑤ |⑥---|
⑦□□⑥ |⑦-⑧⑨|
45
①□□① |①--②|
③⑩⑪⑥ |③-④⑤|
⑥□②⑤ |⑥-⑦⑧|
⑨⑧⑦④ |⑨-⑩⑪|
46
②□□② |----|
□□③□ |----|
②□□② |--①-|
□□①□ |②-③-|
47
⑩⑥③□ |①-②③|
⑧□⑨① |④⑤⑥-|
□②⑤□ |⑦-⑧-|
①④⑦⑨ |⑨-⑩-|
48
□⑥③⑩ |①-②③|
□□⑪① |④⑤⑥-|
⑧②⑤⑨ |⑦⑧⑨-|
①④⑦⑩ |⑩-⑪-|
49
⑩⑥③□ |①-②③|
□□⑨① |④⑤⑥-|
⑧②⑤□ |⑦⑧⑨-|
①④⑦⑩ |⑩-⑪-|

□□□□
□□□□
□⑪□□
□□□□
50
□⑤②⑧ |①-②③|
③⑨⑥① |④-⑤⑥|
⑦□④⑩ |⑦-⑧⑨|
①④⑦⑩ |⑩---|
51
□⑥③⑪ |①-②③|
□□⑩① |④⑤⑥-|
⑧②⑤⑨ |⑦⑧⑨-|
①④⑦⑩ |⑩-⑪-|
52
□⑥③⑩ |①-②③|
□□⑪① |④⑤⑥-|
⑧②⑤⑨ |⑦⑧⑨-|
①④⑦⑩ |⑩-⑪-|
53
⑩⑥③⑪ |①-②③|
□□⑨□ |④⑤⑥-|
⑧②⑤□ |⑦⑧⑨-|
①④⑦⑩ |⑩-⑪-|
54
⑩④□□ |①②③-|
③⑤⑪□ |④⑤⑥⑦--|
□⑥②⑩ |⑧-⑨-|
①⑦⑨⑧ |⑩-⑪-|
55
⑩⑥③① |①-②③|
⑧□⑨□ |④⑤⑥-|
□②⑤□ |⑦-⑧-|
①④⑦⑨ |⑨-⑩-|
56
□⑥③⑩ |①-②③|
□□⑪① |④⑤⑥-|
⑧②⑤⑨ |⑦⑧⑨-|
①④⑦⑩ |⑩-⑪-|
57
⑩⑥③□ |①-②③|
□□⑨① |④⑤⑥-|
⑧②⑤□ |⑦⑧⑨-|
①④⑦⑩ |⑩-⑪-|

□□□□
□□□□
□⑪□□
□□□□
58
□⑤②⑧ |①-②③|
③⑨⑥① |④-⑤⑥|
⑦□④⑩ |⑦-⑧⑨|
①④⑦⑩ |⑩---|
59
□⑥③⑪ |①-②③|
□□⑩① |④⑤⑥-|
⑧②⑤⑨ |⑦⑧⑨-|
①④⑦⑩ |⑩-⑪-|
60
□⑥③⑨ |①-②③|
□⑧⑩① |④⑤⑥-|
□②⑤⑪ |⑦⑧⑨-|
①④⑦⑩ |⑩-⑪-|
61
⑪⑥③□ |①-②③|
□□⑨① |④⑤⑥-|
⑧②⑤□ |⑦⑧⑨-|
①④⑦⑩ |⑩⑪⑫⑬|

□□⑫□
□□□□
□□□□
□⑬□□
62
③□□① |①---|
①②③② |②---|
②③②① |③---|
①□□③ |④---|

□④□□
④□□□
□□□④
□□④□
63
□⑤□① |①-②-|
⑥□③□ |③-④-|
④⑦②□ |⑤-⑥-|
①③⑤⑦ |⑦-⑧⑨|

□□□⑧
□□□⑨
□□□□
□□□□
64
④⑦⑦□ |①--②|
□□②□ |③-④-|
□⑥□① |⑤-⑥-|
①③⑤⑦ |⑦---|
65
□⑤⑧① |①-②-|
⑥□③□ |③-④-|
④⑦②□ |⑤-⑥-|
①③⑤⑦ |⑦-⑧-|
66
④□□① |①--②|
□⑥②□ |③-④-|
□⑦⑦□ |⑤⑥--|
①③⑤⑦ |⑦---|
67
□□□① |①---|
④③②□ |--②③|
④□□□ |④---|
①□□□ |⑤---|

□□□⑤
□□□□
□□□□
□□□□
68
①□□□ |①---|
□□□④ |--②③|
□②③④ |④---|
□□□① |⑤---|

⑤□□□
□□□□
□□□□
□□□□
69
□④④① |①---|
□③□□ |--②③|
□②⑥□ |④---|
①⑤□□ |--⑤⑥|
70
①②□③ |①---|
②□③① |②---|
①③□② |③---|
③□②① |④---|

□□④□
□□□④
④□□□
□④□□
71
①①□④ |①-②-|
□③⑥□ |③-④-|
□⑦②□ |⑤-⑥-|
⑤□①① |⑦-⑧-|

□□□□
□□□□
□□□□
□□□⑧
72
①①□⑥ |①-②-|
□⑦□④ |③-④-|
③□□□ |⑤-⑥-|
□⑤②□ |⑦-⑧⑨|

⑧⑨□□
□□□□
□□□□
□□□□
73
⑭⑮①□ |①-②③|
⑥⑫⑬⑦ |④⑤⑥⑦|
④⑩⑪⑤ |⑧⑨⑩⑪|
②⑧⑨③ |⑫-⑬---⑭⑮|
74
□□①② |①②------|
□□□□ |----|
□□□□ |----|
□□□□ |----|
最終更新:2025年11月10日 02:20