アットウィキロゴ
BPM:270

1
□□□□ |----|
□□□④ |①-②-|
□□③□ |③-④-|
①②□□
2
□□□① |①---|
□□□□ |----|
□□□□ |----|
□□□∧
3
□□□□ |----|
□□□□ |----|
□①□□ |①---|
□□□□
4
①□□1 |①---|
□□□□ |----|
□□□□ |----|
∧□□□
5
□□□□ |①---|
□□□□ |----|
□□□□ |----|
□①①□
6
1①□① |①---|
□□□□ |----|
□□□□ |----|
□□□∧
7
□③②□ |①---|
□□□□ |----|
①□□□ |②-③-|
□□□□
8
①□□1 |①---|
□□□□ |----|
□□③□ |②-③-|
∧②□□
9
□□□□ |①---|
□①□□ |----|
□□□② |②---|
□□□□
10
1①□① |①---|
□□□□ |----|
□③□□ |②-③-|
□□②∧
11
□□□□ |①---|
□□①□ |----|
②□□□ |②---|
□□□□
12
①□①1 |①---|
□□□□ |----|
□□□□ |----|
∧□□□
13
□□□□ |①---|
□③□□ |②---|
□□②□ |③---|
□①①①
14
1①□① |①---|
□□□□ |----|
□□□□ |----|
□□□∧
15
□③②□ |①---|
□□□□ |----|
①□□□ |②-③-|
□□□□
16
①□□1 |①---|
□□□□ |----|
□□□□ |----|
∧□□□
17
□□②□ |①---|
□□□□ |②---|
□③④□ |③-④-|
□①□□
18
1□□∨ |①---|
□□□□ |----|
□□□□ |----|
□□□①
19
□②□□ |①---|
□□③□ |②---|
□□□□ |③---|
□□①□
20
∨□□□ |①---|
□□□□ |----|
□□□□ |----|
①□□1
21
□□□□ |①---|
□□②□ |②---|
□□③□ |--③-|
□①□□
22
□□□□ |①---|
□□□∨ |----|
□□□□ |----|
1□□①
23
□□□□ |①---|
□∨□□ |----|
□□□□ |----|
□①□1
24
□□□□ |①---|
□>□① |----|
□□□□ |----|
□1□□
25
①><① |①---|
□□□1 |②-③-|
①><① |--④-|
□□□□

□□□□
□④□□
□②③□
□□□□
26
□□□□ |①---|
②□①③ |②---|
□□□□ |③---|
□□□□
27
□①□□ |①---|
□□④□ |②-③-|
□③②□ |--④-|
□□□□
28
□□□□ |①---|
③①□② |②---|
□□□□ |③---|
□□□□
29
□□①□ |①---|
□④□□ |②-③-|
□②③□ |--④-|
□□□□
30
□□□□ |①---|
②□①③ |②---|
□□□□ |③---|
□□□□
31
1①□1 |①---|
□□④□ |②-③-|
1③②1 |--④-|
□□□□
32
□□□□ |①---|
③①□② |②---|
□□□□ |③---|
□□□□
33
□②①□ |①---|
□□□□ |--②-|
②□□① |----|
①□□②
34
①□□② |①---|
□②①□ |②---|
□□□□ |----|
□②①∧
35
□①②□ |--①-|
□□□□ |--②-|
①□□② |----|
□□□□
36
□④□1 |①-②-|
□②③□ |--③-|
□□④□ |--④-|
③□□②
37
□□□□ |①---|
②□□① |--②-|
①□□② |----|
□①②□
38
①□①□ |①---|
□□□□ |----|
□①□□ |----|
∧□□□
39
□②□① |--①-|
□□□□ |--②-|
②□①□ |----|
□□□□
40
1□□□ |①-②-|
②□□③ |--③-|
□④④□ |--④-|
□③②□
41
□②①□ |①---|
□□□□ |--②-|
②□□① |----|
①□□②
42
①□□② |①---|
□②①□ |②---|
□□□□ |----|
□②①∧
43
□①②□ |--①-|
□□□□ |--②-|
①□□② |----|
□□□□
44
□④□1 |①-②-|
□②③□ |--③-|
□□④□ |--④-|
③□□②
45
①□②□ |①---|
∧□□① |--②-|
②<□② |----|
□□①□

2□□□
□□□□
□□□□
□□□□
46
□②<② |①---|
①②□ |--②-|
□□□□ |----|
□①□①

□□□□
□2□□
1□□□
□□□□
47
②<□□ |①---|
①□□② |--②-|
∧②①□ |----|
①□□□

□1□□
2□□□
□□□□
□□□□
48
□□①□ |①---|
□□∧□ |--②-|
□□□① |----|
□①□□

□□□□
□②<□
②□□□
□□②□

1□2□
□□□□
□□□□
□□□□
49
①□① |①---|
□∨□② |--②-|
□②①□ |----|
□□□②

□2□□
□1□□
□□□□
□□□□
50
□>②□ |①---|
□□①□ |--②-|
②□∧① |----|
□①②□

□□□□
□□2□
□1□□
□□□□
51
①□1① |①---|
②□□□ |②---|
□③□□ |③---|
□□□∧
52
□□□□ |①---|
□①□□ |②---|
②□□□ |③---|
□③□□
53
□①①1 |①---|
□□□□ |--②-|
□③□□ |--③-|
□□□②
54
□□□□ |①---|
①□□□ |----|
□□□□ |②---|
∧②②□

□□□□
2□□□
□□□□
□□□□
55
□①①□ |①---|
□□□□ |--②-|
□□③□ |--③-|
②□□□
56
□□□□ |①---|
□□□① |----|
□□□□ |②---|
□②②∧

□□□□
□□□2
□□□□
□□□□
57
□③②① |①-②-|
□④□□ |③-④-|
□□⑤□ |⑤---|
□□□∧
58
□□□□ |①-②-|
□□③④ |③-④-|
□②□⑤ |⑤---|
①□□□
59
□④⑤□ |①-②-|
②③□□ |③-④-|
①□□□ |⑤---|
□□□□
60
□□□1 |①-②-|
□□⑤□ |③-④-|
□③④□ |⑤---|
①②□□
61
①□②□ |①---|
∧□□① |--②-|
②<□② |----|
□□①□

2□□□
□□□□
□□□□
□□□□
62
□②<② |①---|
①②□ |--②-|
□□□□ |----|
□①□①

□□□□
□2□□
1□□□
□□□□
63
②<□□ |①---|
①□□② |--②-|
∧②①□ |----|
①□□□

□1□□
2□□□
□□□□
□□□□
64
□□①□ |①---|
□□∧□ |--②-|
□□□① |----|
□①□□

□□□□
□②<□
②□□□
□□②□

1□2□
□□□□
□□□□
□□□□
65
①□① |①---|
□∨□② |--②-|
□②①□ |----|
□□□②

□2□□
□1□□
□□□□
□□□□
66
□>②□ |①---|
□□①□ |--②-|
②□∧① |----|
□①②□

□□□□
□□2□
□1□□
□□□□
67
①□1① |①---|
②□□□ |②---|
□③□□ |③---|
□□□∧
68
□□□□ |①---|
□①□□ |②---|
②□□□ |③---|
□③□□
69
□①①1 |①---|
□□□□ |--②-|
□③□□ |--③-|
□□□②
70
□□□□ |①---|
①□□□ |----|
□□□□ |②---|
∧②②□

□□□□
2□□□
□□□□
□□□□
71
□①①□ |①---|
□□□□ |--②-|
□□③□ |--③-|
②□□□
72
□□□□ |①---|
□□□① |----|
□□□□ |②---|
□②②∧

□□□□
□□□2
□□□□
□□□□
73
□③②① |①-②-|
□④□□ |③-④-|
□□⑤∧ |⑤---|
□□□□
74
□□□1 |①-②-|
③□③□ |③---|
□②□□ |④---|
①④□④
75
□②□□ |①---|
□□□② |②---|
①□□□ |----|
□□①□
76
□□①□ |①---|
①□□□ |②---|
□□□② |----|
□②□□
77
□□□□ |----|
□□□□ |----|
□□□□ |----|
□□□□
78
□①□□ |①---|
□□□□ |----|
①□①□ |----|
□①□□
79
□□①□ |①---|
□□□□ |----|
□①□① |----|
□□①□
80
⑥□□⑦ |①-②-|
②□□③ |③-④-|
□⑤⑧□ |⑤-⑥-|
①□□④ |⑦-⑧-|
81
□□□□ |①-②-|
□②③□ |③---|
①□□□ |----|
□□□□
82
□③②⑥ |①-②-|
□□□□ |③-④-|
□□□□ |⑤-⑥-|
□④①⑤
83
①□□□ |①-②-|
□⑤④□ |③-④-|
□⑥③□ |⑤-⑥-|
②□□□
84
□□③□ |①-②-|
□□□② |③---|
□□□① |----|
□□□□
85
②⑥⑦③ |①-②-|
□□□□ |③-④-|
□□□□ |⑤-⑥-|
①⑤⑧④ |⑦-⑧-|
86
□□□□ |①-②-|
②□□③ |③---|
①□□□ |----|
□□□□
87
③□□② |①-②-|
□□⑥□ |③-④-|
□④①□ |⑤-⑥-|
□□□⑤
88
□□□□ |①-②-|
⑤①□④ |③-④-|
□□□□ |⑤-⑥-|
②⑥③□
89
□③②□ |①-②-|
□□□□ |③---|
□□□① |----|
□□□□
90
⑥□□⑧ |①-②-|
□⑤④□ |③-④-|
□②⑦□ |⑤-⑥-|
①□□③ |⑦-⑧-|
91
□②③□ |①-②-|
□□□□ |③---|
①□□□ |----|
□□□□ |----|
92
⑦□□⑥ |①-②-|
③□□② |③-④-|
□⑧⑤□ |⑤-⑥-|
④□□① |⑦-⑧-|
93
□□□□ |①-②-|
⑥③②⑤ |③-④-|
④□□① |⑤-⑥-|
□□□□ |----|
94
□□□⑤ |①---|
□□④□ |----|
□③□□ |②-③-|
②①①□ |④-⑤-|
95
⑦①□□ |①---|
⑤□□② |②-③-|
①□③□ |④-⑤-|
□④⑥□ |⑥-⑦-|
96
□□①□ |①-②-|
□②④⑦ |③-④-|
③⑤⑧□ |⑤-⑥-|
⑥□□□ |⑦-⑧-|
97
③③④□ |①-②-|
□□④□ |--③-|
⑤□□② |--④-|
⑤①□② |--⑤-|
98
⑤□□① |①---|
③③□□ |②---|
□②②□ |③---|
□④□∧ |④-⑤-|
99
□①①3 |--①-|
⑤□③□ |--②-|
□□□□ |③---|
②□④□ |④-⑤-|
100
□□□□ |--①-|
□③③□ |----|
②②①① |②---|
□□□□ |③---|
101
③□①① |①---|
□□□□ |②-③-|
□⑤⑤□ |--④-|
□②④④ |--⑤-|
102
□③□□ |--①-|
①①④④ |--②-|
□□□□ |③---|
②□□□ |④---|
103
□□④④ |①---|
③□□□ |②---|
③□□② |③---|
□①①② |④---|
104
□③□□ |①---|
□□□□ |②-③-|
□①①□ |----|
②□□□ |----|
105
□□□□ |①---|
□□∨∨ |----|
□□□□ |----|
□□①①
106
①①□□ |①---|
□□□□ |----|
∧∧□□ |----|
□□11
107
11□□ |①---|
□③②① |②---|
③②①□ |③---|
□□□□
108
□□□① |①-②-|
□□□□ |----|
□□□□ |----|
□□②□
109
①□□□ |①---|
∧□□① |--②-|
②<□② |----|
□□□□

2□□□
□□□□
□□□□
□□□□
110
□②<② |①---|
①□□ |--②-|
□□□□ |----|
□□□①

□□□□
□2□□
1□□□
□□□□
111
②<□□ |①---|
①□□② |--②-|
∧□①□ |----|
□□□□

□1□□
2□□□
□□□□
□□□□
112
□□①□ |①---|
□□∧□ |--②-|
□□□□ |----|
□①□□

□□□□
□②<□
□□□□
□□②□

1□2□
□□□□
□□□□
□□□□
113
①□① |①---|
□∨□□ |--②-|
□②□□ |----|
□□□②

□2□□
□1□□
□□□□
□□□□
114
□>②□ |①---|
□□①□ |--②-|
②□∧□ |----|
□①□□

□□□□
□□2□
□1□□
□□□□
115
①□1① |(340)①---|
□□□□ |②---|
□□□□ |----|
②□□∧
116
□□□□ |①---|
②□□□ |②---|
□□□□ |----|
□□①□
117
□□□□ |①---|
□□□□ |②---|
①□□□ |----|
□□□②
118
②□□□ |①---|
□□□□ |②---|
□□□□ |----|
□①□□
119
□□□□ |①---|
①□□□ |②---|
□□□□ |----|
②□□□
120
②□□□ |①---|
□□□□ |②---|
□□□□ |----|
□□①□
121
□□□□ |①---|
□□□□ |②---|
①□□□ |----|
□□□②
122
②□□□ |①---|
□□□□ |②---|
□□□□ |----|
□①□□
123
□□□□ |①---|
□□□□ |②---|
②□□□ |----|
□□①□
124
□□□□ |①---|
①□□□ |②---|
□□□□ |----|
②□□□
125
②□□□ |①---|
□□□□ |②---|
□□□□ |----|
□□①□
126
□□□□ |①---|
□□□□ |②---|
②□□□ |----|
□□□①
127
□□□1 |①---|
①□□□ |②---|
□□□□ |----|
□□②□
128
②□□□ |①---|
□□□□ |②---|
□□□□ |----|
①□□□
129
□□□□ |①---|
□□□□ |②---|
②□□□ |----|
□□□①
130
□□□□ |①---|
①①①① |②---|
□□□□ |----|
□□②□
131
①①③□ |①---|
□□□□ |②-③-|
□①③□ |----|
②□□□
132
□□□① |①---|
□□□□ |②---|
②□□① |----|
□□□①
133
①□□□ |①---|
□□□□ |②---|
□□□□ |----|
□②□□
134
□②②② |①---|
②□□□ |②---|
□□□□ |----|
□□①□
135
□□□□ |①---|
□□□□ |②-③-|
①③□③ |----|
□□□②
136
①□□□ |①---|
□①□① |②---|
□□□□ |----|
□②□□
137
□□□□ |①---|
①□□□ |②---|
□□□□ |----|
□□②□
138
①□①□ |①---|
□□①□ |②---|
□□①□ |----|
②□□□
139
□□□□ |①---|
□③□③ |②-③-|
②①□① |----|
□□□①
140
□①□① |①---|
①□□□ |②---|
□□□□ |----|
□□②□
141
①□□□ |①---|
□□□□ |②---|
□□□□ |----|
□②□□
142
□□□□ |①---|
①□□□ |②---|
□②②② |----|
②□□□
143
□□□③ |①---|
□□□③ |②-③-|
①□□□ |----|
□□②□
144
□①□□ |①---|
①①□□ |②---|
□□□□ |----|
□②□□
145
①□□□ |①---|
□□□□ |②---|
□□□□ |----|
□□□②
146
□□□□ |①---|
①①①① |②---|
□□□□ |----|
②□□□
147
①②□□ |①---|
□□□□ |--②-|
①②□□ |----|
□①②□
148
□□①□ |①---|
□□□□ |----|
□□①□ |----|
□□□①
149
□□□□ |①---|
□□① |----|
□□□□ |②---|
□□□□

□□□□
□□□2
□□□□
□□□□
150
□□□□ |----|
□□□□ |----|
□□□□ |----|
□□□□
151
□□②① |①---|
□□□□ |--②-|
□□②① |----|
□②①□
152
□①□□ |①---|
□□□□ |----|
□①□□ |----|
①□□□
153
□□□□ |①---|
①□□< |----|
□□□□ |②---|
□□□□

□□□□
2□□□
□□□□
□□□□
154
□□□□ |----|
□□□□ |----|
□□□□ |----|
□□□□
155
□□□□ |(280)①---|
□②②∨ |--②-|
□□□□ |--③-|
□□□①

□□□□
□□□□
□□□□
□□□3
156
□□□□ |①---|
∨□□□ |②---|
□□□□ |③---|
①□□□

□②③□
□□□□
②□□③
3□□□
157
□□□□ |①---|
②□∨② |--②-|
□□□□ |--③-|
□□①□

□□□□
□□□□
□□□□
□□3□
158
□□□□ |①---|
□∨□□ |②---|
□□□□ |③---|
□①□□

②□□③
□□□□
□②③□
□3□□
159
□②①□ |①---|
□□□□ |--②-|
②□□① |----|
①□□②
160
①□□② |①---|
□②①□ |②---|
□□□□ |----|
□②①∧
161
□①②□ |--①-|
□□□□ |--②-|
①□□② |----|
□□□□
162
□④□1 |①-②-|
□②③□ |--③-|
□□④□ |--④-|
③□□②
163
□□□□ |①---|
②□□① |--②-|
①□□② |----|
□①②□
164
①□①□ |①---|
□□□□ |----|
□①□□ |----|
∧□□□
165
□□□□ |--①-|
②□□① |--②-|
□□□□ |----|
□②①□
166
1④④□ |①-②-|
□③②□ |--③-|
□□□□ |--④-|
②□□③
167
□□□① |①---|
②□□∧ |--②-|
□①>② |----|
□②①□

□□□2
□□□□
□□□□
□□□□
168
①>②□ |①---|
□②①< |--②-|
①□□□ |----|
②□□□

□□□□
□□2□
□□□1
□□□□
169
□□>② |①---|
②□□① |--②-|
□①②∧ |----|
□□□①

□□1□
□□□2
□□□□
□□□□
170
□①□□ |①---|
□∧□□ |--②-|
①□□□ |----|
□□①□

□□□□
□>②□
□□□②
□②□□

□2□1
□□□□
□□□□
□□□□
171
□□□□ |①---|
①□□ |--②-|
□①□□ |----|
①□□□

□□②□
②□∧□
□□②□
□□□□

□□□□
□21□
□□□□
□□□□
172
□□□① |①---|
□□□∧ |--②-|
①□□□ |----|
□□①□

□□□□
□□>②
□□□□
□②□②

□□12
□□□□
□□□□
□□□□
173
①□□□ |①---|
□□②1 |②---|
□③□□ |③---|
∧□□□
174
□□□□ |①---|
□□□□ |②---|
□□②① |③---|
□③□□
175
1□□① |①---|
□□□□ |----|
□□□□ |----|
□□□∧
176
□□□□ |----|
□□□□ |----|
□□□□ |①---|
①□□□
177
①□□□ |①---|
□□□□ |②---|
②□□□ |③---|
□③□□
178
□□□□ |①---|
□□□□ |----|
□□□□ |----|
□□□①
179
□□□□ |----|
□□□□ |----|
□□□□ |----|
□□□□
180
□□□1 |①---|
□□□□ |----|
□□□□ |----|
□□□□
最終更新:2025年11月10日 01:49