Crescive Volt / Ark-Z
BPM:155
Notes:849
1
①□□□ |①---|
□②□□ |----|
□□□□ |②---|
③□□□ |--③-|
2
□□□□ |----|
□□□□ |----|
□②□□ |----|
□□①□ |--①②|
3
□□□□ |①---|
④□①□ |----|
□□□□ |②---|
②□③□ |③-④-|
4
□□□① |--①-|
□□③② |----|
⑤④□□ |----|
□□□□ |②③④⑤|
5
□□③□ |①---|
□□□□ |----|
□□□□ |②---|
②④□① |③-④-|
6
□□□□ |--①-|
□□⑤① |--②-|
③④□□ |----|
□□□② |③④⑤⑥|
□□□□
□□□⑥
□□□□
□□□□
7
□①□② |①---|
①④□④ |----|
□□②□ |②---|
③□③□ |③-④-|
8
②□②□ |--①-|
□□□□ |②---|
□①□① |----|
□□□□ |----|
9
□⑪□⑩ |①②③-|
⑨③⑥⑧ |④⑤⑥-|
⑦⑤②□ |⑦⑧-⑨|
□①④□ |⑩-⑪-|
10
⑩□⑪□ |①②③-|
⑧⑥③⑨ |④⑤⑥-|
□②⑤⑦ |⑦⑧-⑨|
□④①□ |⑩-⑪-|
11
□⑪□⑩ |①②③-|
⑨③⑥⑧ |④⑤⑥-|
⑦⑤②□ |⑦⑧-⑨|
□①④□ |⑩-⑪-|
12
⑨□□⑧ |①②③-|
⑪⑥③⑩ |④⑤⑥-|
□②⑤□ |⑦---|
⑦④①⑦ |⑧⑨⑩⑪|
13
□⑥③□ |①②③-|
□②⑤□ |④⑤⑥-|
⑧④①① |⑦⑧-⑨|
□□⑦⑦ |⑩-⑪-|
□□⑪□
⑩□□□
□□□⑨
□□□□
14
□□□□ |①②③-|
□③⑥□ |④⑤⑥-|
□⑤②□ |⑦⑧-⑨|
①①④□ |⑩-⑪-|
⑦⑦□□
⑨□□⑧
□□□⑩
⑪□□□
15
⑩□□⑪ |①②③-|
⑧⑥③⑨ |④⑤⑥-|
□②⑤⑦ |⑦⑧-⑨|
□④①① |⑩-⑪-|
16
□③⑥□ |①②③-|
⑦⑤②⑧ |④⑤⑥-|
□①④□ |⑦---|
⑦□□□ |⑧⑨⑩⑪|
□□□□
□□⑨□
⑪⑩□□
□□□□
17
⑦⑦③③ |①--②|
②□⑥⑧ |③-④-|
□□①④ |⑤-⑥-|
⑤□⑦① |⑦-⑧-|
18
⑦⑦④④ |①-②③|
③□⑧⑥ |④---|
□②□□ |⑤-⑥-|
⑤①⑦① |⑦-⑧-|
19
⑦⑦③③ |①--②|
□②⑥⑧ |③-④-|
①□□④ |⑤-⑥-|
⑤□⑦① |⑦-⑧-|
20
⑧⑧④④ |①-②③|
③□□□ |④-⑤-|
□②□⑤ |⑥-⑦-|
⑥①⑦① |⑧---|
21
⑦⑦③③ |①--②|
②□⑥⑧ |③-④-|
□□①④ |⑤-⑥-|
⑤□⑦① |⑦-⑧-|
22
⑦⑦④④ |①-②③|
③□□⑧ |④---|
□②⑦□ |⑤-⑥-|
⑤①⑥① |⑦-⑧-|
23
⑦⑦③③ |①--②|
①②⑥⑧ |③-④-|
□□□④ |⑤-⑥-|
⑤□⑦① |⑦-⑧-|
24
□□④④ |①-②③|
③⑨⑧□ |④-⑤-|
□②⑩⑤ |⑥-⑦-|
⑥①⑦① |⑧⑨⑩⑪|
□□□□
□□□□
□⑪□□
□□□□
25
⑦⑦③③ |①--②|
②□⑥⑧ |③-④-|
□□□④ |⑤-⑥-|
⑤□⑦① |⑦-⑧-|
26
⑦⑦④④ |①-②③|
③□⑧⑥ |④---|
□②□□ |⑤-⑥-|
⑤①⑦① |⑦-⑧-|
27
⑦⑦③③ |①--②|
□②⑥⑧ |③-④-|
①□□④ |⑤-⑥-|
⑤□⑦① |⑦-⑧-|
28
⑧⑧④④ |①-②③|
③□□□ |④-⑤-|
□②□⑤ |⑥-⑦-|
⑥①⑦① |⑧---|
29
⑧⑧④④ |①-②③|
⑤③⑦□ |④-⑤-|
⑦①②⑤ |⑥-⑦-|
⑥□⑧① |⑧-⑨-|
□□□□
□⑨□⑨
□□□□
□□□□
30
⑧⑧④④ |①-②③|
③□⑤□ |④-⑤-|
⑦②⑧□ |⑥-⑦-|
⑥①⑦① |⑧-⑨-|
□□□□
□□□⑨
□⑨□□
□□□□
31
⑫□⑨③ |①②③④|
④②⑮⑪ |⑤⑥⑦⑧|
⑧⑭⑬⑤ |⑨⑩⑪⑫|
⑥⑩⑦① |⑬⑭⑮⑯|
□□□□
□⑯□□
□□□□
□□□□
32
④②③⑤ |①-②③|
□□□⑥ |--④⑤|
⑦□□□ |-⑥⑦⑧|
①□□① |⑨⑩⑪⑫|
□□□□
□□□□
□⑪⑫□
□⑨⑩⑧
33
□□□□ |①--②|
①①□④ |--③-|
⑤□□② |④--⑤|
③□□⑥ |--⑥-|
34
①①□⑥ |①--②|
⑤□②□ |--③-|
□③④④ |④--⑤|
□□□□ |--⑥-|
35
□□□□ |①--②|
□①④□ |--③-|
□②⑤□ |④--⑤|
□③⑥□ |--⑥-|
36
⑥①□□ |①--②|
⑦②⑤□ |--③-|
⑧③④□ |④--⑤|
⑨□□□ |⑥⑦⑧⑨--|
37
⑥⑥□⑦ |①-②③|
⑧④⑤□ |④-⑤-|
⑩□③⑨ |⑥-⑦⑧|
□②①① |⑨-⑩-|
38
⑦□⑥⑥ |①-②③|
□⑤④⑧ |④-⑤-|
⑨③□⑩ |⑥-⑦⑧|
①①②□ |⑨-⑩-|
39
⑭⑩⑮⑨ |①②③④|
⑯⑥⑦⑬ |⑤⑥⑦⑧|
⑧④③⑪ |⑨⑩⑪⑫|
⑫②①⑤ |⑬⑭⑮⑯|
40
□□□⑥ |①--②|
⑤②③□ |--③-|
②□④③ |④--⑤|
③①①② |--⑥-|
41
①□□□ |①---|
□②□□ |----|
□□□□ |②---|
③□□□ |--③-|
42
□□□□ |----|
②□□□ |----|
□②□① |----|
□□①□ |--①②|
43
□□□① |①---|
④□①④ |----|
□□□□ |②---|
②③③② |③-④-|
44
①□□① |--①-|
□①①② |----|
□□□□ |----|
□□□□ |②③④⑤|
□□□□
□□③□
⑤④□□
□□□□
45
□□③□ |①---|
□□□□ |----|
□□□□ |②---|
②④□① |③-④-|
46
□□□□ |--①-|
□□□① |--②-|
③□□□ |----|
□③□② |③④⑤⑥|
⑤□□⑥
□□⑥④
□⑤□□
□□④□
47
□①①□ |①---|
②□□② |----|
③□③□ |②---|
②③□② |③-④-|
□④□④
□□④□
□□□□
□□□□
48
②□②□ |--①-|
□②□□ |②---|
□①□① |----|
□□①□ |----|
49
①□□① |①---|
□□②② |----|
□□④□ |②---|
□③□□ |③-④-|
50
□④④□ |①--②|
③□□□ |--③-|
②⑥□□ |④---|
①□⑤① |--⑤⑥|
51
□□□③ |①---|
□⑤①① |--②-|
□□④② |③---|
③□□□ |④-⑤-|
52
②①①③ |①--②|
⑦⑥⑤④ |--③-|
⑧⑨⑩② |④⑤⑥⑦|
③□□□ |⑧⑨⑩⑪|
□□□□
□□□□
□□□⑪
□□□□
53
□①①□ |①--②|
③⑦⑤③ |--③-|
⑧□□⑧ |④⑤-⑥|
④②②⑥ |⑦-⑧-|
54
②□□③ |①--②|
④⑤⑥⑦ |--③-|
⑪⑩⑨⑧ |④⑤⑥⑦|
□①①□ |⑧⑨⑩⑪|
55
□①①□ |①--②|
⑦③③⑤ |--③-|
□□□⑧ |④⑤-⑥|
②④⑥② |⑦-⑧-|
56
①□□□ |①--②|
⑧⑨②□ |--③-|
④⑤⑥⑦ |④⑤⑥⑦|
□③□□ |⑧⑨⑩⑪|
□□□□
□□⑩⑪
□□□□
□□□□
57
□①①② |①--②|
□⑧⑥□ |③-④-|
□□□⑨ |⑤⑥-⑦|
③⑤⑦④ |⑧-⑨-|
58
□⑥⑦② |①--②|
⑤□④⑧ |③-④-|
①①□⑨ |⑤⑥⑦⑧|
③⑪⑩□ |⑨⑩⑪⑫|
□□□□
□□□□
⑫□□□
□□□□
59
□□□① |①--②|
②⑥⑧□ |③-④-|
⑨□①□ |⑤⑥-⑦|
④⑦⑤③ |⑧-⑨-|
60
②⑦⑥③ |①--②|
⑧④□⑤ |③-④-|
⑨□①① |⑤⑥⑦⑧|
□⑩⑪□ |⑨⑩⑪⑫|
□□□□
□□□□
□□□⑫
□□□□
61
①□□□ |①--②|
□⑧⑥② |③-④-|
□①□⑨ |⑤⑥-⑦|
③⑤⑦④ |⑧-⑨-|
62
□⑥⑦② |①--②|
⑤□④⑧ |③-④-|
①①□⑨ |⑤⑥⑦⑧|
③⑪⑩□ |⑨⑩⑪⑫|
□□□□
□□□□
⑫□□□
□□□□
63
□□□① |①--②|
②⑥⑧□ |③-④-|
⑨□①□ |⑤⑥-⑦|
④⑦⑤③ |⑧-⑨-|
64
□①①⑥ |①--②|
②④⑤② |--③-|
⑦□□⑩ |-④⑤⑥|
③⑧⑨③ |⑦⑧⑨⑩|
65
①□□□ |①--②|
□⑧⑥② |③-④-|
□①□⑨ |⑤⑥-⑦|
③⑤⑦④ |⑧-⑨-|
66
①①□② |①--②|
⑦□④□ |③-④-|
⑥□□□ |⑤⑥⑦⑧|
③⑤□□ |⑨⑩⑪⑫|
□⑧⑨□
□□□⑩
□□□⑪
□□⑫□
67
①□□② |①--②|
□⑧⑥□ |③-④-|
□①□⑨ |⑤⑥-⑦|
③⑤⑦④ |⑧-⑨-|
68
①①⑤② |①--②|
⑪□□⑥ |③-④-|
⑩□□⑦ |⑤⑥⑦⑧|
③⑨⑧④ |⑨⑩⑪⑫|
□⑫□□
□□□□
□□□□
□□□□
69
②□□① |①--②|
□⑥⑧□ |③-④-|
⑨□①□ |⑤⑥-⑦|
④⑦⑤③ |⑧-⑨-|
70
②⑧⑨□ |①--②|
⑦④□⑩ |③-④-|
⑥□①① |⑤⑥⑦⑧|
□⑤□③ |⑨⑩⑪⑫|
□□□□
□□□□
□□□⑪
□□⑫□
71
①□□② |①--②|
□⑧⑥□ |③-④-|
□①□⑨ |⑤⑥-⑦|
③⑤⑦④ |⑧-⑨-|
72
⑪①①⑦ |①--②|
②⑩⑥② |--③-|
□⑤⑨□ |④⑤⑥⑦|
④③③⑧ |⑧⑨⑩⑪|
73
□⑤⑥③ |①--②|
④□③① |--③-|
□□□① |④⑤⑥⑦|
②②□□ |⑧⑨⑩⑪|
□□□□
□□□⑦
⑪□□⑧
□⑩⑨□
74
□③③⑦ |①--②|
②②⑥□ |--③-|
□⑤①□ |④⑤⑥⑦|
④□□① |⑧⑨⑩⑪|
⑪□□□
□⑩□□
□□⑨□
□□□⑧
75
⑧③⑧⑦ |①--②|
③□⑥① |--③-|
②⑤□① |④⑤⑥⑦|
④②□□ |⑧-⑨-|
□□□□
□□□□
□□□□
□⑨□⑨
76
□②③⑦ |--①-|
③①⑥① |②--③|
②⑤⑨② |④⑤⑥⑦|
④□①⑧ |⑧⑨⑩⑪|
⑪□□□
□⑩□□
□□□□
□□□□
77
□③□□ |①--②|
⑤□□⑦ |--③-|
②④④□ |④⑤-⑥|
⑥①①□ |⑦-⑧-|
□□□□
□□□□
□□□□
□□⑧□
78
②⑤⑥③ |①--②|
④①①⑦ |--③-|
⑪②③⑧ |④⑤⑥⑦|
□⑩⑨□ |⑧⑨⑩⑪|
79
③□⑤③ |①--②|
□□①□ |--③-|
□②②□ |④⑤-⑥|
④□□① |⑦-⑧-|
□⑦□□
□□□□
□□□□
□⑧⑧⑥
80
③□④② |①--②|
①②①③ |--③-|
③①②① |-④⑤⑥|
②⑤□③ |⑦---|
□□□□
⑦□□□
□□□⑥
□□□□
81
□□□□ |①---|
□①①□ |----|
□①①□ |----|
□□□□ |----|
最終更新:2025年11月10日 02:19