閉塞的フレーション / Pizuya's Cell VS BEMANI Sound Team "dj TAKA”
BPM:176
Notes:1020
1
□□□① |①-②-|
④□②⑦ |③-④-|
□⑤⑧③ |⑤-⑥-|
⑥□□□ |⑦-⑧-|
2
②□□□ |①-②-|
⑦③□□ |③-④-|
④⑥□□ |⑤--⑥|
□□⑤① |--⑦-|
3
④□□① |①-②-|
□⑤②⑦ |③-④-|
⑥□⑧③ |⑤-⑥-|
□□□□ |⑦-⑧-|
4
□⑦⑧□ |①-②-|
②□⑥□ |③-④-|
□③□⑤ |⑤--⑥|
④□□① |--⑦⑧|
5
□□□① |①---|
④⑤□□ |②-③-|
⑥③□□ |④-⑤-|
②⑦□□ |⑥-⑦-|
6
□□⑤④ |①-②-|
□⑥③⑥ |③-④-|
□□⑦② |⑤-⑥-|
□⑧①⑧ |⑦-⑧-|
7
□④□⑤ |①---|
③□⑥□ |②-③-|
□②□⑦ |④-⑤-|
①□□□ |⑥-⑦-|
8
①③①□ |①---|
□□□③ |②---|
□□②□ |③---|
②④□④ |④---|
9
①⑦□① |①-②-|
④□②⑦ |③-④-|
③⑤⑧③ |⑤-⑥-|
⑥□⑤□ |⑦-⑧-|
10
②□⑤□ |①-②-|
⑧③□⑦ |③-④-|
④⑥□③ |⑤--⑥|
□①⑤① |⑦-⑧-|
11
④①□① |①-②-|
□⑤②⑦ |③-④-|
⑥□⑧③ |⑤-⑥-|
③⑦⑤□ |⑦-⑧-|
12
□①③② |①-②-|
②⑤⑤□ |③---|
④③□④ |④--⑤|
□□□① |--⑥-|
□⑥□□
□□□□
□□□□
□□⑥□
13
□□③① |①---|
③⑤⑥□ |②---|
□⑦⑧④ |③-④-|
②□□① |⑤⑥⑦⑧|
14
①①□□ |①---|
③④⑤⑥ |②---|
⑦⑧⑨⑩ |③④⑤⑥|
□□②② |⑦⑧⑨⑩|
15
①□□□ |①---|
②□□□ |----|
□□□② |----|
□□□□ |--②-|
16
⑥④⑤① |①--②|
⑦②□□ |--③-|
⑧⑤③□ |④--⑤|
①③④② |⑥⑦⑧⑨⑩⑪⑫⑬|
□□□⑩
□□□⑪
□□□⑫
⑨□□⑬
17
□③□④ |①---|
□①①□ |②---|
④□②□ |③---|
□②③□ |④---|
18
⑤□①□ |①---|
④□③⑤ |②-③-|
□②□□ |④---|
□④□① |⑤---|
19
□①□① |①-②-|
□③④□ |③-④-|
⑤⑧⑦⑥ |⑤-⑥⑦|
□⑤③② |⑧-⑨-|
□⑨⑨□
□□□□
□□□□
□□□□
20
⑬⑫⑪⑩ |①-②③|
②③⑥⑤ |④-⑤⑥|
⑧⑨□□ |⑦-⑧⑨|
①⑦④① |⑩⑪⑫⑬|
21
□□□⑤ |①---|
④□④□ |②-③-|
□④□① |④---|
②③③□ |⑤-⑥-|
□□□□
□□□□
□□⑥⑥
□□□□
22
⑥④①⑥ |①---|
④①④① |②-③-|
③③□□ |④---|
□⑤⑤② |⑤-⑥-|
23
⑪⑧①⑪ |①-②③|
⑥①⑦① |④⑤⑥⑦|
④□①⑤ |⑧-⑨-|
②⑨⑩③ |⑩-⑪-|
24
⑪⑩⑨⑧ |--①-|
④⑤⑥⑦ |②-③-|
②③①□ |④⑤⑥⑦|
①□□③ |⑧⑨⑩⑪|
25
□□□④ |①---|
□③□□ |②---|
④□③② |③---|
②①①□ |④---|
26
⑤□①□ |①---|
④□③⑤ |②-③-|
□②□□ |④---|
□④□① |⑤---|
27
□①□① |①---|
□②③□ |②-③-|
④⑦⑥⑤ |④-⑤⑥|
□④②□ |⑦-⑧-|
□⑧⑧□
□□□□
□□□□
□□□□
28
⑬⑫⑪⑩ |①-②③|
②③⑥⑤ |④-⑤⑥|
⑧⑨□□ |⑦-⑧⑨|
①⑦④① |⑩⑪⑫⑬|
29
⑧⑧⑦□ |①-②-|
④②⑦⑤ |③-④-|
⑥⑥⑤① |⑤-⑥-|
②④③③ |⑦-⑧-|
30
□□□③ |①--②|
⑤②□⑤ |--③-|
□⑤⑤① |④---|
①④④□ |⑤---|
31
□①①④ |①-②-|
□③□□ |③-④-|
□⑧⑦⑥ |⑤-⑥⑦|
⑨⑤⑤② |⑧-⑨-|
32
⑤①①⑥ |①-②③|
⑨□④⑧ |④⑤⑥⑦|
③⑪□⑩ |⑧⑨⑩⑪|
⑬⑦⑫② |⑫⑬⑭⑮|
□⑮⑭□
□□□□
□□□□
□□□□
33
□□②□ |①---|
□③□□ |----|
□□①□ |----|
□□□□ |-②③④|
□□□□
□□□□
□□④□
□□□□
34
③□□□ |①--②|
□□□④ |--③-|
⑤□□□ |④--⑤|
□①⑥② |--⑥-|
35
④□□④ |①---|
③①①③ |--②-|
□□□□ |③---|
□□□② |④---|
36
□□□□ |①---|
□③□□ |----|
□①①□ |②--③|
④□②□ |--④-|
37
①□□① |①---|
⑦□②□ |②-③-|
⑥③□□ |④---|
⑤□④□ |⑤-⑥-⑦-|
38
⑩⑥⑨□ |①-②-③-|
⑪⑤⑧③ |④-⑤-⑥-|
⑫④⑦② |⑦-⑧-⑨-|
□□□① |⑩-⑪-⑫-|
39
⑦⑧□① |①---②-|
□□□⑥ |--③-④-|
□□□□ |⑤---⑥-|
②⑤④③ |--⑦-⑧-|
40
□□①⑧ |①-②-|
④⑥□□ |③-④-|
⑦□③③ |⑤-⑥-|
②⑤⑤⑦ |⑦-⑧-|
41
①①⑤□ |①---|
□□□□ |②---|
④□□② |③---④-|
□③③□ |--⑤---|
42
③□□⑤ |①---②-|
□④④② |--③---|
□①①□ |④---⑤-|
⑥□□□ |--⑥---|
43
□①①⑥ |①---|
□⑤④③ |②-③④|
⑦⑧□□ |⑤---|
□②□□ |⑥-⑦⑧|
44
□□□⑤ |①--②|
②□④② |--③-|
⑥□①□ |④⑤--|
□③③□ |⑥⑦⑧⑨|
⑧□⑨□
□□□□
□□⑦□
□□□□
45
□⑦□⑩ |①-②-③-|
⑧③⑪⑥ |④-⑤-⑥-|
⑨②⑫⑤ |⑦-⑧-⑨-|
①□④□ |⑩-⑪-⑫-|
46
⑦□□⑫ |①-②-③-|
⑨⑧⑪⑩ |④-⑤-⑥-|
□③□⑥ |⑦-⑧-⑨-|
②①⑤④ |⑩-⑪-⑫-|
47
⑦①②⑦ |①---|
□③□□ |--②③|
⑥□④⑥ |④⑤-⑥|
□⑤□□ |--⑦-|
48
⑭⑥⑦⑮ |①-②③|
④⑩③⑨ |④⑤⑥⑦|
⑫②⑪⑬ |⑧⑨⑩⑪|
①⑧⑤① |⑫⑬⑭⑮|
49
□④②□ |①---|
□□□□ |②---|
□□□□ |③---|
①□□③ |④---|
50
□□□⑤ |①---|
④□③□ |②-③-|
□②□□ |④---|
□□①□ |⑤---|
51
□②□□ |①---|
□□③□ |②-③-|
□⑦⑥⑤ |④-⑤⑥|
①④⑧① |⑦-⑧-|
52
□□①□ |①---|
□②□□ |②---|
□□③□ |③---|
□□④④ |--④-|
53
⑤①②⑦ |①②③④|
⑩③④⑨ |⑤-⑥-|
⑥⑦⑥⑧ |⑦-⑧-|
⑧⑨⑩□ |⑨-⑩-|
54
⑥①①⑤ |①-②③|
□⑥②⑦ |④-⑤-|
③⑤⑥⑧ |⑥-⑦-|
⑧⑧□④ |⑧-⑨-|
□□⑨□
□□□□
□□□□
□□□□
55
⑨③⑫⑧ |①②③④|
⑬⑦④□ |⑤⑥⑦⑧|
①⑤⑩□ |⑨⑩⑪⑫|
□⑪⑥② |⑬⑭⑮⑯⑰⑱|
□□□□
□□□⑯
⑭□□⑰
⑮□□⑱
56
□①□□ |①---|
⑦□④⑥ |----|
□③□⑧ |②③④⑤|
⑨⑤②□ |⑥⑦⑧⑨|
57
④⑧①① |①-②③|
⑭⑥⑦⑨ |④⑤⑥⑦|
②⑩⑤⑬ |⑧⑨⑩⑪|
□⑫⑪③ |⑫⑬⑭-|
58
②⑥③⑤ |①②③-|
⑪⑩⑨⑧ |④-⑤⑥|
④□⑦□ |⑦--⑧⑨⑩|
④⑫⑫① |⑪-⑫-|
59
⑩⑧⑤⑨ |①②③④|
⑫□⑦⑪ |⑤-⑥⑦|
②⑥⑬① |⑧-⑨⑩|
④□□③ |⑪⑫⑬-|
60
⑨⑧⑦⑥ |①-②-|
□③④⑩ |③-④-|
⑤□□④ |⑤--⑥⑦⑧|
③①①② |⑨-⑩-|
61
⑪⑩⑨⑧ |①②③-|
⑫⑬⑭□ |④⑤⑥⑦|
⑦③②⑥ |⑧⑨⑩⑪|
⑤①□④ |⑫⑬⑭-|
62
⑪⑩⑨⑧ |①②③-|
⑫⑬⑭⑮ |④⑤⑥⑦|
⑦③②⑥ |⑧⑨⑩⑪|
⑤①□④ |⑫⑬⑭⑮|
63
⑨⑦⑧⑤ |①-②③|
⑩□□⑩ |④-⑤-|
④⑤⑨⑥ |⑥⑦⑧-|
②①①③ |⑨-⑩-|
64
□③⑦⑧ |--①-|
□①⑥□ |②-③-|
□③⑤□ |④⑤⑥⑦|
①⑨④② |⑧-⑨-|
65
①⑤⑮⑪ |①②③④|
②⑥⑯⑫ |⑤⑥⑦⑧|
⑨⑬⑦③ |⑨⑩⑪⑫|
⑩⑭⑧④ |⑬⑭⑮⑯|
66
①⑤⑯⑫ |①②③④|
②⑥⑮⑪ |⑤⑥⑦⑧|
⑩⑭⑦③ |⑨⑩⑪⑫|
⑨⑬⑧④ |⑬⑭⑮⑯|
67
①②⑮⑪ |①②③④|
⑤⑥⑯⑫ |⑤⑥⑦⑧|
⑨⑬⑦③ |⑨⑩⑪⑫|
⑭⑩⑧④ |⑬⑭⑮⑯|
68
④①⑩□ |①②③-|
②⑤□⑨ |④⑤⑥-|
⑧□□□ |⑦⑧⑨-|
□⑦⑥③ |⑩⑪⑫⑬|
□⑪□□
□□□□
□⑬⑫□
□□□□
69
⑤⑧⑥① |①-②-|
④③③⑤ |③-④-|
⑦□⑧② |⑤-⑥-|
②⑥④⑦ |⑦-⑧-|
70
③□□① |①--②|
⑤③□④ |--③-|
□①□② |④---|
④□②⑤ |⑤---|
71
③①①④ |①-②-|
□⑧⑦⑥ |③-④-|
⑨⑤⑤③ |⑤-⑥⑦|
④②②□ |⑧-⑨-|
72
⑪①①④ |①-②③|
⑤□⑩□ |④⑤⑥⑦|
⑬⑦⑧⑫ |⑧⑨⑩⑪|
③⑨②⑥ |⑫⑬⑭⑮|
□⑮⑭□
□□□□
□□□□
□□□□
73
□⑪□⑨ |①②③-|
⑤③⑦① |④-⑤⑥|
⑧□⑩□ |⑦-⑧-|
□⑥②④ |⑨⑩⑪-|
74
②□④□ |①-②③|
⑤⑪□⑥ |④-⑤-|
□③□① |⑥--⑦⑧⑨|
⑦⑧⑨⑩ |⑩-⑪-|
75
⑤③⑦① |①②③-|
□⑪④⑨ |④-⑤⑥|
⑧⑥②□ |⑦-⑧-|
□□⑩□ |⑨⑩⑪-|
76
⑤⑪⑩⑥ |①-②③|
②□④□ |④-⑤-|
⑦⑬⑫① |⑥⑦⑧⑨|
⑨③□⑧ |⑩⑪⑫⑬|
77
⑤⑬□⑪ |①②③④|
⑥③⑧① |⑤-⑥⑦|
□□⑫④ |⑧⑨⑩-|
⑨⑦②⑩ |⑪⑫⑬⑭|
□□□□
□□□⑭
□□□□
□□□□
78
②□④□ |①-②③|
⑤□⑦□ |④⑤⑥-|
①③□⑥ |⑦--⑧⑨⑩|
⑧⑨⑩⑪ |⑪⑫⑬⑭|
□□□□
□⑭□⑬
⑫□□□
□□□□
79
⑦③⑨① |①②③④|
⑤⑮⑥⑬ |⑤⑥⑦⑧|
⑫⑧②④ |⑨⑩⑪⑫|
⑩□⑭⑪ |⑬⑭⑮⑯|
□□□⑯
□□□□
□□□□
□□□□
80
⑥①⑨□ |①②③④|
③□⑤⑬ |⑤⑥⑦⑧|
⑫⑩⑦② |⑨⑩⑪⑫|
⑧④□⑪ |⑬⑭⑮⑯|
□⑭□□
⑯□□□
□□□□
□□⑮□
81
④⑩□⑤ |①②③④|
⑭③②⑨ |⑤-⑥⑦|
□⑬⑧① |⑧⑨⑩-|
⑥⑦⑫⑪ |⑪⑫⑬⑭|
82
⑥⑧①⑤ |①-②③|
⑫③④⑦ |④⑤⑥⑦|
②□⑪□ |⑧⑨⑩⑪|
□⑩□⑨ |⑫⑬⑭⑮|
□□⑬□
□□□□
□□□⑮
⑭□□□
83
⑤□⑩④ |①②③④|
⑨②③⑭ |⑤-⑥⑦|
①⑧⑬□ |⑧⑨⑩-|
⑪⑫⑦⑥ |⑪⑫⑬⑭|
84
⑤①⑧□ |①-②③|
□④③⑫ |④⑤⑥⑦|
⑪⑦□② |⑧⑨⑩⑪|
⑨□⑥⑩ |⑫⑬⑭⑮|
□⑬□□
□□□□
□□⑭□
□⑮□□
85
③⑬⑦① |①②③④|
②⑥④⑩ |⑤⑥⑦⑧|
⑨⑤⑫⑮ |⑨⑩⑪⑫|
⑧□⑪⑭ |⑬⑭⑮⑯|
□□□⑯
□□□□
□□□□
□□□□
86
⑩⑭⑤⑬ |①②③④|
④⑫③⑦ |⑤⑥⑦⑧|
⑧②⑨⑮ |⑨⑩⑪⑫|
⑥①□⑪ |⑬⑭⑮⑯|
□□□□
□□□□
□⑯□□
□□□□
87
⑩□□⑨ |①-②③|
②⑫①⑤ |④⑤⑥⑦|
⑥□⑦□ |⑧⑨⑩⑪|
④⑧③⑪ |⑫⑬⑭⑮|
□⑭⑮□
□□⑬□
□□□□
□□□□
88
⑪⑮⑯⑫ |①--②③④|
①⑬⑭② |⑤⑥⑦⑧⑨⑩|
③④⑤⑥ |⑪⑫⑬⑭|
⑦⑧⑨⑩ |⑮⑯⑰⑱|
□□□□
⑰□□⑱
□□□□
□□□□
最終更新:2026年01月12日 08:47