BPM:98
1
□□□□ |----|
□③④□ |----|
□□⑤□ |-----①|
□①②□ |②-③④-⑤|
2
②□□② |①-②---|
①□⑤① |③-④-⑤-|
□④□□ |⑥-⑦-|
□□③□ |⑧-⑨-|
⑨□□□
□⑧□⑧
□□⑦□
⑥□□⑥
3
□④③② |①---②③|
□□□□ |④---|
①□□① |⑤-⑥⑦-⑧|
□□□□ |⑨-⑩⑪-⑫|
□□□⑪
□⑤⑤⑦
⑩□⑧⑫
⑥□□⑨
4
□①①□ |①---②-|
②□□③ |③---|
□②③□ |--④⑤-⑥|
□□□□ |⑦-⑧⑨-⑩|
□□⑦□
□⑤□⑥
④⑧□□
⑩□⑨□
5
②①□③ |①--②-③|
□④①□ |----|
②□⑤③ |--④-|
□□□□ |⑤---|
6
②□□② |①-②---|
①□⑤① |③-④-⑤-|
□④□□ |⑥-⑦-|
□□③□ |⑧-⑨-|
⑨□□□
□⑧□⑧
□□⑦□
⑥□□⑥
7
□②②□ |①---|
□□□□ |②---|
①□□① |③-④⑤-⑥|
□□□□ |⑦-⑧⑨-⑩|
□□□⑨
□③③⑤
⑧□⑥⑩
④□□⑦
8
□①①□ |①---②-|
②□□③ |③---|
□②③□ |--④⑤-⑥|
□□□□ |⑦-⑧⑨-⑩|
⑨□□⑩
□⑧⑦□
□⑤□⑥
④□□□
9
□□□□ |①--②-③|
②□□③ |----|
②□□③ |----|
□①①□ |----|
10
□①①□ |①---|
①②②□ |②---|
□③③② |③---④⑤|
③□□□ |⑥-⑦---|
⑦□□⑦
□⑥⑤④
□□□□
□□□□
11
④②□④ |①-②--③|
②□□□ |--④--⑤|
⑤□①⑤ |---⑥-⑦|
③⑤⑤③ |⑧-⑨⑩-⑪|
□⑥⑥□
⑪□□⑨
□⑦⑩□
⑧□□□
12
□□□□ |①---|
□②②□ |②---|
②□□□ |③-④-⑤⑥|
□□□① |⑦-⑧---|
⑧□□⑧
□⑦⑥⑤
□③③□
④□□③
13
⑤②②□ |①-②--③|
□⑤□④ |--④--⑤|
③□④① |--⑥⑦-⑧|
□③□□ |⑨---⑩⑪⑫---⑬-|
□□□□
⑧□⑦□
□⑫⑪⑩
⑬⑨□⑥
14
□①①□ |①---|
□②②① |②---|
②③③□ |③---④⑤|
□□□③ |⑥-⑦---|
⑦□□⑦
□⑥⑤④
□□□□
□□□□
15
④②□④ |①-②--③|
②□□□ |--④--⑤|
⑤□①⑤ |---⑥-⑦|
③⑤⑤③ |⑧-⑨⑩-⑪|
□⑥⑥⑨
⑦□⑩□
□⑧□□
⑪□□□
16
□②②□ |①---|
□□□② |②---|
□□□□ |③-④-⑤⑥|
□□□① |⑦-⑧---|
⑦□□⑦
□⑤⑤□
□④④⑥
⑧③③⑧
17
□③⑦□ |①-②--③|
④⑥□③ |--④--⑤|
②⑤④□ |----|
□①□⑤ |--⑥⑦--|
18
①④□□ |①----②|
□⑤③④ |---③--|
①②⑥□ |④----⑤|
□□①④ |---⑥--|
19
□□□□ |①--②-③|
□③②□ |----|
□□□□ |----|
①□□① |--④⑤--|
□⑤□□
□□④□
□□□□
□□□□
20
□□④① |①----②|
④③⑤□ |---③--|
□⑥②① |④----⑤|
④①□□ |---⑥--|
21
□②□□ |①--②-③|
□□□□ |----|
□□□□ |--④--⑤|
①□③① |--⑥⑦--|
⑤□□⑤
□□□□
④⑦□④
□□⑥□
22
□□①④ |①----②|
①②⑤□ |---③--|
□⑥③④ |④----⑤|
①④□□ |---⑥--|
23
④⑨⑨④ |①-②③-④|
⑤③⑥⑤ |--⑤⑥-⑦|
⑦□②⑦ |---⑧-⑨|
①⑧⑧① |----|
24
③□□③ |①-②--③|
□□②□ |--④--⑤|
□①□② |--⑥--⑦|
①④④□ |---⑧--|
□⑦□□
□□⑥⑦
⑥⑤□□
□⑧⑧⑤
25
①□□① |①--②-③|
②□□③ |-----④|
□②③□ |⑤--⑥-⑦|
□□□□ |---⑧-⑨|
④④⑤⑤
□⑥⑥□
⑨□□⑧
⑦⑨⑧⑦
29
③□□⑥ |①---|
□⑤□① |--②-|
□②④□ |③-④-|
□□□□ |⑤-⑥-|
30
③①③□ |①-②--③|
①④□④ |--④--⑤|
⑤②⑤□ |----|
②□□□ |----|
31
②□□□ |①---|
①□④① |②-③-④-|
□③□□ |⑤-⑥-|
□□②□ |⑦-⑧-|
⑧□□⑦
□⑦□□
□□⑥□
□□□⑤
32
□□□③ |①---②-|
②□□③ |③---|
□□□□ |④-⑤⑥-⑦|
□①①□ |⑧-⑨⑩-⑪|
⑧④□□
□⑩⑦□
⑧⑥□⑨
⑪□⑤□
33
□③③③ |①---②-|
□□□□ |③---|
□□①□ |--④⑤-⑥|
□②②□ |⑦-⑧⑨-⑩|
⑦⑦□□
□⑧⑥□
□⑤⑨□
□⑩□④
34
⑥□①④ |①--②-③|
③⑤□② |④---|
③□⑥② |--⑤-|
□□□□ |⑥---|
35
□□□② |①---|
①④□① |②-③-④-|
□□③□ |⑤-⑥-|
□②□□ |⑦-⑧-|
⑦□□⑧
□□⑦□
□⑥□□
⑤□□□
36
③□□□ |①---②-|
③□□② |③---|
□□□□ |④-⑤⑥-⑦|
□①①□ |⑧-⑨⑩-⑪|
□□④⑧
□⑦⑩□
⑨□⑥⑧
□⑤□⑪
37
③③③□ |①---②-|
□□□□ |③---|
□①□□ |--④⑤-⑥|
□②②□ |⑦-⑧⑨-⑩|
□⑨⑦⑦
□⑥⑩□
□□⑤□
④□⑧□
38
①□□□ |①--②-③|
③□□② |---④-⑤|
③①□② |⑥--⑦-⑧|
□□□□ |⑨-⑩-|
⑩⑨⑨⑩
□⑦⑦□
□⑥⑥⑧
□④④⑤
39
⑤③④⑤ |①-②--③|
①□□② |--④--⑤|
③⑤⑤④ |-----⑥|
②□□① |⑦-⑧⑨-⑩|
□□□□
□⑧⑨□
□□⑩□
□⑥⑦□
40
②□□② |①-②---|
①□⑤① |③-④-⑤-|
□④□□ |⑥-⑦-|
□□③□ |⑧-⑨-|
⑨□□□
□⑧□⑧
□□⑦□
⑥□□⑥
41
□④③② |①---②③|
□□□□ |④---|
①□□① |⑤-⑥⑦-⑧|
□□□□ |⑨-⑩⑪-⑫|
□□□⑪
□⑤⑤⑦
⑩□⑧⑫
⑥□□⑨
42
□①①□ |①---②-|
②□□③ |③---|
□②③□ |--④⑤-⑥|
□□□□ |⑦-⑧⑨-⑩|
□□⑦□
□⑤□⑥
④⑧□□
⑩□⑨□
43
②①□③ |①--②-③|
□□①□ |----|
②□□③ |④-⑤-⑥-|
□□□□ |⑦-⑧-⑨-|
□④⑥⑧
□□⑥□
□⑤□⑦
□⑤⑦⑨
44
□□□□ |①---|
□①④① |②-③-④-|
①③①□ |⑤-⑥-|
②□②□ |⑦-⑧-|
⑧□□□
⑤⑦□⑦
□□⑥□
□□□⑤
45
□②②□ |①---|
□□□□ |②---|
①□□① |③-④⑤-⑥|
□□□□ |⑦-⑧⑨-⑩|
□□□⑨
□③③⑤
⑧□⑥⑩
④□□⑦
46
□①①□ |①-②--③|
③③④④ |④---|
□□□□ |--⑤⑥-⑦|
□②②□ |⑧-⑨⑩-⑪|
⑩□□⑪
□⑨⑧□
□⑥□⑦
⑤□□□
47
□□□□ |①---②-|
②④□③ |③-④---|
②②□③ |⑤---⑥-|
□①①□ |--⑦---|
□□□□
⑦□⑦□
⑥□⑥□
⑤□⑤□
48
□①③⑤ |①-②-③-|
□□□□ |④-⑤-⑥-|
□□□□ |⑦-⑧-⑨-|
□②④⑥ |⑩-⑪-⑫-|
□⑨□⑫
⑨⑧⑫⑪
⑧⑦⑪⑩
⑦□⑩□
最終更新:2026年01月12日 08:59