アットウィキロゴ
BPM:141-176

1
□□□□ |----|
□□□□ |----|
□□□□ |----|
□□□□ |----|
2
①⑥①④ |①-②-|
□②⑤□ |③-④-|
③□⑧④ |⑤-⑥-|
□⑦□⑦ |⑦-⑧-|
3
⑤□⑤□ |①-②-|
②⑥□① |③-④-|
⑦③□□ |⑤-⑥-|
②□④□ |⑦---|
4
□①□① |①-②-|
⑤□②□ |③-④-|
□③⑦⑤ |--⑤-|
④⑥④⑥ |⑥-⑦-|
5
②④②□ |①-②-|
□①⑤③ |--③-|
③⑤□□ |④---|
□□④□ |⑤---|
6
□□□① |①---|
□①□□ |----|
□□①□ |----|
①□□□ |----|
7
□□□④ |--①②|
⑥①□□ |③-④-|
□□②⑤ |⑤-⑥-|
⑦③⑧□ |⑦-⑧-|
8
□□□⑤ |①-②-|
□③□① |③-④-|
②□④□ |⑤---|
□□□□ |----|
9
④□□□ |--①②|
□□①⑥ |③-④-|
⑤②□□ |⑤-⑥-|
□⑧③⑦ |⑦-⑧-|
10
⑤□□□ |①-②-|
①④③□ |③-④-|
□□□② |⑤---|
□□□□ |----|
11
④⑤⑤□ |--①-|
③□□□ |②-③-|
①⑥□② |④-⑤-|
□□□□ |--⑥-|
12
□□⑤□ |①-②-|
□④□① |③-④-|
□□③□ |⑤---|
□②□⑥ |--⑥-|
13
⑤①⑦⑫ |①②③④|
⑪⑥②⑧ |⑤⑥⑦⑧|
□③□⑩ |⑨⑩⑪⑫|
⑨⑬④⑭ |⑬-⑭-|
14
③①□⑤ |①-②-|
⑤□①③ |③-④-|
②□□□ |⑤---|
□□④□ |----|
15
□①①□ |①---|
⑤③④⑥ |②-③-|
③⑤⑥④ |④-⑤-|
⑦②②⑦ |⑥-⑦-|
16
①⑤②① |①-②-|
□③⑥□ |③-④-|
⑦□□④ |⑤-⑥-|
□⑧⑧□ |⑦-⑧-|
17
④⑦①⑤ |--①②|
□②□⑧ |③-④-|
⑥□③□ |⑤-⑥-|
□□□□ |⑦-⑧-|
18
③⑦⑦⑤ |①-②-|
⑥⑧②□ |③-④-|
□④⑨⑤ |⑤-⑥-|
⑥□□① |⑦-⑧⑨|
19
□□□□ |①-②③|
□□⑥② |④-⑤⑥|
③⑤□□ |⑦⑧⑨⑩|
□①□④ |⑪⑫-⑬|

⑦⑧⑨⑩
⑪□□□
□□□⑫
□⑬□□
20
□⑥⑥□ |①②-③|
□②□⑤ |-④⑤-|
④□①□ |⑥---|
□□③③ |--⑦⑧|

□□□□
□□□□
□□⑧□
□⑦□□
21
□□□③ |①-②-|
⑤①□⑥ |③-④-|
⑧④□② |⑤-⑥-|
□□⑦⑧ |⑦-⑧-|
22
⑤①③⑤ |①-②-|
⑤③①⑤ |③-④-|
□④④② |⑤---|
②□□□ |----|
23
□④□□ |①---|
□□□③ |②---|
②□□□ |③---|
□①①□ |④---|
24
□□□① |①---|
□□②□ |②---|
□③□□ |③---|
④□□□ |④---|
25
□□③□ |①---|
②□□□ |②---|
□④□□ |③---|
□□□① |④---|
26
③□□③ |①---|
□①①□ |----|
□②②□ |----|
□□□□ |②-③-|
27
□⑥⑥□ |--①-|
②④②④ |②-③-|
⑤□□⑦ |④-⑤-|
①□③□ |⑥-⑦-|
28
①⑦⑦① |①-②-|
③□③□ |③-④-|
⑥④□⑥ |⑤---|
⑤②□⑤ |⑥-⑦-|
29
⑤⑥□⑥ |--①-|
②②④④ |②-③-|
⑥□⑥□ |④--⑤|
□①③⑤ |--⑥-|
30
□□□□ |----|
□□□□ |----|
□①□□ |----|
□□□□ |--①-|
31
□⑤②□ |①-②-|
□①⑥③ |③-④-|
□⑥□④ |⑤---|
□□⑤□ |⑥---|
32
⑦④⑦① |①---|
⑥①□④ |②-③-|
⑤⑤①③ |④-⑤-|
①②□② |⑥-⑦-|
33
⑥⑦⑥⑦ |①-②-|
□③③□ |③-④-|
⑦⑤②⑥ |⑤--⑥|
①④①④ |--⑦-|
34
□□□□ |--①-|
①⑦②□ |②-③-|
□⑤⑥□ |④-⑤⑥|
⑦④□③ |--⑦-|
35
②⑤①⑦ |①-②-|
②⑦⑥③ |③-④-|
④⑥⑦① |⑤-⑥-|
⑦④⑤③ |⑦---|
36
①④①□ |①---|
□□□④ |②-③-|
□□□③ |④-⑤-|
□②□② |⑥-⑦-|

⑦□⑦□
⑥□□□
⑤⑤□□
□□□□
37
⑥□⑦⑥ |①-②-|
□③③⑦ |③-④-|
□⑤②□ |⑤--⑥|
①④①④ |--⑦-|
38
⑥③□⑥ |--①-|
③⑤④□ |②-③-|
②④⑤① |④--⑤|
□②①□ |--⑥-|
39
□④①□ |--①-|
②□⑤③ |②-③-|
□⑤□① |④---|
□②④③ |⑤---|
40
④⑥□① |①-②-|
⑤①□□ |③-④-|
③□①□ |⑤-⑥-|
①②⑧⑦ |⑦-⑧-|
41
□□④② |①-②-|
□⑤⑥③ |③-④-|
□⑦□① |⑤-⑥-|
□□□□ |⑦---|
42
□□⑥④ |①-②-|
□□□⑤ |③-④-|
□□□③ |⑤-⑥-|
⑦⑧②① |⑦-⑧-|
43
②④□□ |①-②-|
③⑥⑤□ |③-④-|
①□⑦□ |⑤-⑥-|
□□□□ |⑦---|
44
⑤③②④ |(174)①---②-|
③⑤④② |(169)③-④-⑤-|
⑥⑦⑧⑥ |(165)⑥---⑦-|
⑧①①⑦ |(167)--⑧---|
45
□③④⑤ |(156)①---|
①□□① |(152)②---③④|
②□□② |(147)⑤---⑥-|
□①①□ |(143)⑦-⑧-⑨-|

□□□□
□⑥□□
□⑧⑦□
□□⑨□
46
⑤⑥⑦□ |(141)①---|
□□④□ |②-③-④-|
□□□□ |⑤-⑥-⑦-|
①③□② |⑧-⑨-⑩-|

□□□□
□⑩□□
□□□□
⑧□⑨□
47
□⑫⑪⑩ |①-②-③-|
⑦⑧⑨⑥ |④-⑤-⑥-|
⑤③②① |⑦-⑧-⑨-|
□□□④ |⑩-⑪-⑫-|
48
①□⑩□ |①---|
②③④⑧ |②-③-④-|
□⑨□□ |⑤-⑥-⑦-|
□⑦⑥⑤ |⑧-⑨-⑩-|
49
⑨□□⑩ |①-②-③-|
⑧③⑪⑥ |④-⑤-⑥-|
⑦⑫②⑤ |⑦-⑧-⑨-|
①□□④ |⑩-⑪-⑫-|
50
④□③□ |①---|
□⑥□⑦ |②-③-④-|
⑧⑨⑩□ |⑤-⑥-⑦-|
①②⑤□ |⑧-⑨-⑩-|
51
⑩③②① |①-②-③-|
⑥⑪⑨□ |④-⑤-⑥-|
□⑧⑫⑤ |⑦-⑧-⑨-|
④□⑦□ |⑩-⑪-⑫-|
52
□③□④ |(156)①---|
⑦□⑥□ |②-③-④-|
□⑩⑨⑧ |⑤-⑥-⑦-|
□⑤②① |⑧-⑨-⑩-|
53
①②③⑩ |①-②-③-|
□⑨⑪⑥ |④-⑤-⑥-|
⑤⑫⑧□ |⑦-⑧-⑨-|
□⑦□④ |⑩-⑪-⑫-|
54
③□⑥□ |(172)①---|
□⑤□□ |②-③-|
□□④□ |④⑤⑥-|
①□②② |⑦-⑧-|

□□□⑧
□□□□
□□□□
⑦⑦□□
55
⑤③⑧□ |①②③-|
⑨⑦②□ |④-⑤-|
□①⑥⑩ |⑥⑦⑧-|
⑪□④④ |⑨⑩⑪-|
56
□□④□ |①---|
□③□□ |②③④-|
□□②□ |⑤⑥⑦-|
□□①① |⑧⑨⑩-|

□⑦□□
□□⑥⑩
⑨⑤□□
□□□⑧
57
⑤⑩⑩⑤ |①②③-|
③□□⑨ |④-⑤-|
⑧⑥⑥② |⑥-⑦⑧|
①④④⑦ |⑨-⑩-|
58
□□□④ |①---②③|
①②③□ |④---|
□□□④ |⑤---⑥⑦|
□□①□ |⑧---|

□□□□
⑧□□⑤
□⑦⑥□
⑧⑤□□
59
⑥④□⑥ |①②-③|
□□③□ |④-⑤-|
②□□□ |⑥---|
□⑤⑤① |⑦-⑧-|

□□□□
⑧□□⑧
□□□□
⑦□□⑦
60
②⑥⑥④ |--①-|
□④②□ |②-③-|
⑥①③⑥ |④--⑤|
⑤③①⑤ |--⑥-|
61
□□□□ |----|
□□□□ |----|
□□□□ |----|
□□□□ |----|
62
②□①③ |----|
③②③□ |----|
□③②③ |①--②|
③①□② |--③-|
63
□□□□ |----|
□□□□ |----|
□□□□ |----|
□□□□ |----|
64
□□□□ |----|
□□□□ |----|
□□□□ |----|
□□□□ |----|
65
□□□□ |----|
□□□□ |----|
□□□□ |----|
□□□□ |----|
66
□□□□ |----|
□□□□ |----|
□□□□ |----|
□□□□ |----|
67
①③①□ |①---|
□④□④ |②-③-|
□□□③ |④-⑤-|
□②□② |⑥-⑦-|

⑦□⑦⑥
⑥□□□
⑤⑤□□
□□□□
68
□②□□ |①-②-|
□③③□ |③-④-|
□□②④ |⑤--⑥|
①④①□ |--⑦-|

⑥□□⑥
⑦□□⑦
⑥⑤□□
□□⑦⑤
69
□③□□ |--①-|
□①②□ |②-③-|
□③□□ |④-⑤⑥|
①□□② |--⑦-|

□□④□
□⑦□□
□□④□
⑦⑤⑥□
70
②⑤③⑦ |①-②-|
④⑦⑥① |③-④-|
②⑥⑦③ |⑤-⑥-|
⑦④⑤① |⑦---|
71
①③①□ |①---|
□④□④ |②-③-|
□□□③ |④-⑤-|
□②□② |⑥-⑦-|

⑦□⑦⑥
⑥□□□
⑤⑤□□
□□□□
72
⑥②⑦⑥ |①-②-|
□③③⑦ |③-④-|
□⑤②④ |⑤--⑥|
①④①⑤ |--⑦-|
73
⑦③□⑦ |--①-|
③⑤④□ |②-③-|
②④⑤① |④-⑤-|
⑥②①⑥ |⑥-⑦-|
74
□④①□ |--①-|
②□⑤□ |②-③-|
□⑤□③ |④---|
□□④□ |⑤---|
75
①⑥①④ |①-②-|
□②⑤□ |③-④-|
③□⑧④ |⑤-⑥-|
□⑦□⑦ |⑦-⑧-|
76
⑤□⑤□ |①-②-|
②⑥□① |③-④-|
⑦③□□ |⑤-⑥-|
②□④□ |⑦---|
77
□①□① |①-②-|
□□②④ |③-④-|
□⑧⑤③ |⑤-⑥-|
⑦⑥⑦④ |⑦-⑧-|
78
②⑤④⑤ |①-②-|
①③⑥□ |③-④-|
②□□⑦ |⑤-⑥-|
□□□□ |⑦---|
79
③④⑤⑥ |①-②-|
②④⑦⑦ |③-④-|
①①□⑧ |⑤-⑥-|
□□□□ |⑦-⑧-|
80
⑦□⑧□ |①-②-|
⑥□□⑧ |③-④-|
⑤⑤②□ |⑤-⑥-|
④③②① |⑦-⑧-|
81
⑦③□⑦ |--①-|
③⑤④□ |②-③-|
②④⑤① |④-⑤-|
⑥②①⑥ |⑥-⑦-|
82
□④□□ |--①-|
①□⑤□ |②-③-|
□⑤□② |④---|
□③④□ |⑤---|
83
④□□① |①-②-|
□①□□ |③-④-|
③□①□ |⑤-⑥-|
①②□□ |⑦-⑧-|

□⑥⑧⑦
⑤□□□
□□□□
□□□□
84
□□□□ |①-②-|
□□□① |③-④-|
□□□③ |⑤-⑥-|
□□④② |⑦---|

□□□□
□□□⑦
⑦□□□
⑤⑥□□
85
①□①□ |①-②-|
□②□⑤ |③-④-|
⑤⑦③□ |--⑤-|
⑥④⑥④ |⑥-⑦-|
86
④②□② |①-②-|
③□①□ |--③-|
□□□③ |④---|
□□□⑤ |⑤---|
87
□①①□ |①---|
□①□① |----|
①①□□ |----|
①①□□ |----|
88
□□□□ |①---|
□□□□ |----|
①①①□ |----|
①□①① |----|
最終更新:2025年11月10日 01:51