アットウィキロゴ
幻想系世界修復少女 [2] / Last Note.
BPM:193
Notes:782

1
⑤③①⑤ |①-②-|
①□⑥③ |③-④-|
□⑦□□ |⑤-⑥-|
⑧②④⑧ |⑦-⑧-|
2
□④②□ |--①-|
②□□④ |②-③-|
⑧⑦⑥⑤ |④--⑤⑥⑦|
□①③⑨ |⑧-⑨-|
3
①⑤⑤③ |①-②-|
⑧③①⑧ |③-④-|
□□□⑥ |⑤-⑥-|
⑦②④□ |⑦-⑧-|
4
④□⑤④ |--①-|
□②⑥□ |②-③-|
③□⑦□ |④--⑤⑥⑦|
□①⑧② |⑧---|
5
⑤③□□ |①-②-|
①⑤□⑧ |③-④-|
③①⑥② |⑤-⑥-|
⑦□⑧④ |⑦-⑧-|
6
□②⑨⑤ |--①-|
②④⑥□ |②-③-|
□⑦□① |④--⑤⑥⑦|
⑧④□③ |⑧-⑨-|
7
①③□□ |①-②-|
③⑤⑥□ |③-④-|
①⑦⑧② |⑤⑥⑦⑧|
□⑨⑩④ |⑨⑩⑪-|

⑪□□□
□□□□
⑪□□□
□□□□
8
□□□□ |----|
□□□□ |----|
□□□□ |----|
□□□□ |----|
9
□⑤□⑤ |①-②-|
④□□③ |③-④-|
②□⑥① |⑤-⑥-|
□□⑦□ |--⑦-|
10
①④①④ |①-②-|
□⑥□⑥ |--③-|
□②⑤□ |④-⑤-|
□③⑦□ |⑥-⑦-|
11
④□④□ |--①-|
□□③□ |②-③-|
②②□③ |④-⑤-|
①⑤□⑥ |--⑥-|
12
④①④① |①-②-|
⑥□⑥□ |--③-|
□⑤②□ |④-⑤-|
□⑦③□ |⑥-⑦-|
13
□⑤□⑤ |①-②-|
□□□□ |③-④-|
③□⑥④ |⑤-⑥-|
①□⑦② |--⑦-|
14
①④①④ |①-②-|
□⑥□⑥ |--③-|
□②⑤□ |④-⑤-|
□③⑦□ |⑥-⑦-|
15
④□④□ |--①-|
□□③□ |②-③-|
②②⑥③ |④-⑤-|
①⑤□□ |--⑥-|
16
④①④① |①-②-|
⑥□⑥□ |--③-|
□⑤□□ |④-⑤-|
□⑦②③ |⑥-⑦-|
17
□④③② |①---|
□□⑤□ |②-③-|
□□□□ |④---|
①⑥□□ |⑤-⑥-|
18
⑤□□⑤ |--①-|
□□□□ |②-③-|
④②□④ |④---|
③□①□ |⑤---|
19
□□⑥□ |①---|
②③④□ |②-③-|
□⑤□□ |④---|
□□□① |⑤-⑥-|
20
④□□④ |--①-|
□□□③ |②-③-|
⑤□②⑤ |④---|
□①□□ |⑤---|
21
□②②□ |①---|
□□□④ |②---|
□③③□ |③---|
□□⑤① |④-⑤-|
22
⑤②⑤④ |--①-|
①□③□ |②-③-|
□□□□ |④---|
□□□□ |⑤---|
23
□⑤□□ |①---|
□①⑤② |②---|
④□②□ |③---|
①③③④ |④-⑤-|
24
⑦□②⑥ |①-②-|
①③⑧④ |③-④-|
□□⑥② |⑤-⑥-|
⑤□④⑧ |⑦-⑧-|
25
□□②□ |①---|
⑥③□② |②-③-|
⑤①⑦④ |④-⑤-|
□□④□ |⑥-⑦-|
26
⑥□⑤□ |①-②-|
□⑤③⑥ |③-④-|
⑥④□⑤ |⑤---|
①①□② |⑥---|
27
□①□⑤ |①-②-|
①⑥②□ |③-④-|
□③□④ |⑤-⑥-|
③□⑦□ |⑦-⑧-|

□□□□
⑧□□□
⑧□□□
□□□□
28
⑤□④⑤ |①-②-|
□⑥⑥□ |③-④-|
⑦③□⑦ |⑤-⑥-|
②□□① |⑦---|
29
□□③⑧ |①-②-|
④□⑤③ |③-④-|
⑦②□□ |⑤-⑥-|
□⑥⑤① |⑦-⑧-|
30
⑤⑥③□ |①-②-|
⑥④⑥⑤ |③-④-|
□①□② |⑤---|
①□⑤□ |⑥---|
31
∨□□∨ |①---|
|□□| |②-③-|
①□□① |④---|
□□□□ |⑤---|

□□□□
□③□□
②□□②
□□□□

□□□□
∨□□∨
|□□|
④□□④

□□□□
□□□□
□□□□
⑤□□⑤
32
①①②② |①---|
①□□② |②---|
④④③③ |③---|
□④③□ |④---|
33
□□□□ |①---|
□①□□ |②-③-|
□□□□ |④-⑤-|
□>―① |⑥---|

□□□□
④□□□
―③□
②□□②

□⑥⑥□
□>―⑥
□□⑤□
□□□□
34
②□□③ |①-②-|
□□⑤① |③-④-|
⑥⑦⑧⑨ |⑤---|
④①□□ |⑥⑦⑧⑨|
35
③①⑧⑥ |①-②-|
①③⑥② |③-④-|
⑦□⑧□ |⑤-⑥-|
⑤⑤□④ |⑦-⑧-|
36
⑤③⑤□ |①-②-|
③④□④ |③---|
⑤①□② |④---|
□④②□ |⑤---|
37
□□□□ |①---|
□□①□ |②-③-|
□□□□ |④-⑤-|
①―<□ |⑥---|

□□□□
□□□④
□③―<
②□□②

□⑥⑥□
⑥―<□
□⑤□□
□□□□
38
③□□② |①-②-|
①⑤□□ |③-④-|
⑨⑧⑦⑥ |⑤---|
□□①④ |⑥⑦⑧⑨|
39
□□①□ |①-②-|
―+① |③-④-|
□□|□ |--⑤-|
□□∧□ |⑥-⑦-|

⑤□⑥□
②④□⑥
□⑥□□
⑦③□□
40
⑥①□① |①-②-|
④□③⑦ |③-④-|
②⑧□⑤ |⑤-⑥-|
□□□⑤ |⑦-⑧-|
41
⑥①①⑥ |①---|
④①□□ |②-③-|
□□①③ |④-⑤-|
②①①⑤ |⑥---|
42
□③③⑧ |①-②-|
⑤⑦⑤② |③-④-|
④□□⑦ |⑤-⑥-|
⑥①□□ |⑦-⑧-|
43
①□④⑧ |①-②-|
⑤⑦□⑥ |③-④-|
③①⑧□ |⑤-⑥-|
⑤③②⑥ |⑦-⑧-|
44
⑤③□⑤ |①-②-|
④□②□ |③---|
③①⑤② |④---|
④□③④ |⑤---|
45
□⑤⑤□ |①-②-|
□①③① |③-④-|
③□□⑥ |⑤-⑥-|
⑦②④⑦ |⑦-⑧-|

□□□□
⑧□□⑧
□□□□
□□□□
46
②⑦⑦② |①-②-|
□⑥⑥⑧ |③-④-|
⑤①③⑤ |⑤-⑥-|
□④④□ |⑦-⑧-|
47
④⑦⑥④ |①-②-|
②□⑧□ |③-④-|
□⑨③□ |⑤-⑥-|
①⑤⑩① |⑦⑧⑨⑩|
48
□□□□ |①---|
①□□① |----|
□④③② |--②③|
□□□□ |④---|
49
①②①⑥ |①-②-|
③⑤③⑤ |③-④-|
⑦□⑨⑧ |⑤-⑥-|
④□④□ |⑦-⑧⑨|
50
②③②□ |①-②-|
⑤⑦⑤⑦ |③-④-|
□①□□ |⑤-⑥-|
⑥④⑧④ |⑦-⑧-|
51
①③①③ |①-②-|
□⑥□⑦ |③-④-|
④□④② |⑤-⑥-|
⑥□⑦⑤ |⑦-⑧-|

⑧□□□
□□□□
□⑧□□
□□□□
52
□□①□ |①---|
②□|□ |②---|
―+① |③-④-|
□□∧□ |⑤-⑥-|

□⑤③□
□□□□
③□⑥③
□④□□
53
①④□□ |①---|
③□③① |②-③-|
④②□④ |--④-|
③□①□ |--⑤-|

⑤□□⑤
□□□□
□□⑤□
□□□□
54
③②③□ |----|
②③②① |①---|
③②③□ |②---|
①□□① |③---|
55
⑦□⑦① |①-②-|
④□⑤⑤ |③-④-|
□□□① |⑤---|
⑥②⑥③ |⑥-⑦-|
56
□①□① |--①-|
③□③□ |--②-|
①②①② |③---|
□③□③ |----|
57
⑥①②① |①-②-|
⑤③⑤③ |③-④-|
⑧⑨□⑦ |⑤-⑥-|
□④□④ |⑦-⑧⑨|
58
⑦②③② |①-②-|
□⑤□⑤ |③-④-|
□□①□ |⑤-⑥-|
④□④⑥ |⑦-⑧-|

□□□□
□□□□
□□⑧□
□□□□
59
⑤⑤⑤⑤ |①-②-|
①□③④ |③-④-|
②①□③ |--⑤-|
⑥⑥⑥⑥ |--⑥-|
60
□□⑤④ |--①-|
②□③⑤ |②-③-|
□①□□ |④-⑤-|
⑥□□⑦ |⑥-⑦-|
61
③③⑥⑥ |①-②-|
⑦②⑤□ |③-④-|
①④①④ |⑤-⑥-|
□□□□ |⑦-⑧-|

□□□□
□□□□
⑧□⑧□
□□□□
62
③③⑤⑦ |--①-|
□②□② |②-③-|
□④□④ |④-⑤-|
①⑥①□ |⑥-⑦-|
63
③③⑥⑥ |①-②-|
①□②□ |③-④-|
⑤⑤④④ |⑤---|
①□□② |⑥-⑦-|

□□□□
⑦⑦□□
□□□□
□□□□
64
□②□□ |①-②-|
∨∨□② |③---|
||□□ |----|
③③①① |④⑤⑥⑦|

□□□□
□⑦⑥□
□⑤④□
④④□□
65
□⑤□⑤ |①-②-|
④□□③ |③-④-|
②□⑥① |⑤-⑥-|
□□⑦□ |--⑦-|
66
①④①④ |①-②-|
□⑥□⑥ |--③-|
□②⑤□ |④-⑤-|
□③⑦□ |⑥-⑦-|
67
④□④□ |--①-|
□□③□ |②-③-|
②②□③ |④-⑤-|
①⑤□⑥ |--⑥-|
68
④①④① |①-②-|
⑥□⑥□ |--③-|
□⑤②□ |④-⑤-|
□⑦③□ |⑥-⑦-|
69
□⑤□⑤ |①-②-|
□□□□ |③-④-|
③□⑥④ |⑤-⑥-|
①□⑦② |--⑦-|
70
①④①④ |①-②-|
□⑥□⑥ |--③-|
□②⑤□ |④-⑤-|
□③⑦□ |⑥-⑦-|
71
④□④□ |--①-|
□□③□ |②-③-|
②②⑥③ |④-⑤-|
①⑤□□ |--⑥-|
72
④①④① |①-②-|
⑥□⑥□ |--③-|
□⑤□□ |④-⑤-|
□⑦②③ |⑥-⑦-|
73
□⑥⑥① |①-②③|
□④□① |④-⑤-|
⑧□③⑧ |⑥-⑦-|
②□⑦⑤ |⑧-⑨-|

⑨□□⑨
□□□□
□□□□
□□□□
74
⑧⑤⑤⑧ |--①②|
⑦③□⑦ |③-④-|
⑥□②⑥ |⑤-⑥-|
□①□④ |⑦-⑧-|
75
□⑤□□ |--①②|
⑨③⑧□ |③-④-|
□⑦②⑩ |⑤⑥⑦⑧|
①□⑥④ |⑨⑩⑪-|

□∨⑪□
++⑪
⑪++<
□⑪∧□
76
□□□□ |----|
□□□□ |----|
□□□□ |----|
□□□□ |----|
77
□□□□ |----|
□□□□ |----|
□□□□ |----|
□□□□ |----|
78
□□①□ |----|
□□□① |----|
①□□□ |----|
□①□□ |①---|
最終更新:2025年11月10日 02:16