アットウィキロゴ
BPM:140
1
①①④④ |--①-|
①□□④ |②③-④|
③③②② |-⑤-⑥|
□③②□ |⑦-⑧⑨|

□⑨□□
□⑤⑧□
□□□□
⑦□□⑥
2
□□④④ |-①②③|
□③□④ |④-⑤-|
⑥⑤②⑥ |⑥---|
⑥①□⑥ |----|
3
□①③① |①---|
④□①⑤ |---②|
⑥□①⑦ |③-④⑤|
⑧②□□ |⑥⑦⑧-|
4
□□□□ |①---|
□①①□ |----|
□□□□ |----|
②□□② |②---|
5
①①□□ |--①-|
①②②□ |②-③-|
□②③③ |④⑤-⑥|
□□③□ |--⑦-|

□□④④
□⑦⑦④
⑤□□□
⑥□□⑥
6
①⑤□② |--①-|
⑤□□④ |②---|
□①②⑥ |③④-⑤|
□③⑥□ |--⑥-|
7
□□③③ |--①-|
□②②③ |②-③-|
①①②□ |④⑤-⑥|
□①□□ |--⑦-|

④④□□
④⑦⑦□
□□□⑤
⑥□□⑥
8
②□□③ |①-②③|
④□□⑤ |④⑤⑥⑦|
□⑥⑦□ |⑧-⑨⑩|
⑧①①□ |--⑪-|

□⑩□□
□□□□
□□□⑨
□□⑪⑪
9
□□①□ |--①-|
□②①① |②-③-|
③②②□ |④⑤-⑥|
③③□□ |--⑦-|

⑥□□⑥
⑤□□□
□⑦⑦④
□□④④
10
□□⑤□ |--①-|
④②①⑤ |②---|
⑥□□□ |③④-⑤|
②⑥③① |--⑥-|
11
□③□□ |--①-|
③③②□ |②-③-|
□②②① |④⑤-⑥|
□□①① |--⑦-|

⑥□□⑥
□□□⑤
④⑦⑦□
④④□□
12
□①②□ |①--②|
③③③③ |--③-|
□□□□ |----|
②□□① |----|
13
⑨⑥③⑨ |--①②|
□②⑤□ |③-④-|
⑧□①⑧ |⑤⑥-⑦|
④④⑦⑦ |-⑧-⑨|
14
□⑤□□ |-①②③|
□③④□ |④⑤-⑥|
□①②□ |----|
⑥□□⑥ |----|
15
□□①□ |--①-|
□②□① |②-③-|
②□③□ |④-⑤⑥|
□□□③ |-⑦-⑧|

④⑧⑧④
⑦□⑥⑦
□□□□
□⑤□□
16
□□□□ |--①-|
□②③□ |②-③-|
②①□③ |④--⑤|
□□①□ |--⑥-|

⑤⑥⑥⑤
□⑥□□
□⑥⑥□
④⑥□④
17
⑧⑥⑥⑧ |--①-|
③□②② |②-③-|
⑦□⑤⑦ |④⑤-⑥|
□④①① |-⑦-⑧|
18
□□□□ |-①②③|
□□⑤□ |④⑤-⑥|
□④③□ |----|
⑥②①⑥ |--⑦-|

□□□□
□□□□
□□□□
□⑦⑦□
19
②□□① |①-②-|
⑤②①⑤ |③-④-|
⑦④③⑦ |⑤--⑥|
④⑥⑥③ |--⑦-|
20
④□□① |①-②③|
③②⑤⑥ |--④-|
□④①□ |⑤⑥--|
□□□□ |⑦---|

□□□⑦
□□□□
□□□⑦
□⑦□□
21
②②②□ |①---|
②②②□ |②---|
②□②□ |--③-|
①□□① |④-⑤-|

□□□□
□□□③
□□□④
□□□⑤
22
①□③③ |①②-③|
□②□□ |--④-|
□□□□ |⑤-⑥-|
④④□□ |⑦---|

□□□□
□⑦⑦□
⑦⑤□⑦
□□⑥□
23
①③□① |①-②-|
□□□□ |③-④-|
④□②□ |⑤--⑥|
□□□□ |--⑦-|

⑦□⑤⑦
□□□⑤
□⑥□□
⑥□□□
24
□④□□ |-①-②|
①□□□ |③-④-|
⑤□②⑥ |⑤---|
⑥□③⑤ |⑥---|
25
□①①① |①---|
④①①① |----|
③□□□ |--②-|
②□□□ |③-④-|
26
③③□① |①②-③|
□□②□ |--④-|
□□□□ |⑤-⑥-|
□□④④ |⑦---|

□□□□
□⑦⑦□
⑦□⑤⑦
□⑥□□
27
□③□① |①②-③|
③□□② |-④-⑤|
⑤□④□ |--⑥-|
□⑤□④ |⑦-⑧-|

□□□□
□□□⑧
□⑦□□
□□⑥□
28
②②②② |①---|
②①①② |----|
□□□□ |②---|
①□□① |----|
29
④④①① |--①-|
④⑥⑦① |②③-④|
②②③③ |-⑤-⑥|
⑧②③⑤ |⑦-⑧-|
30
□③□③ |①---|
□③③③ |②---|
②③□③ |③---|
□②①□ |④⑤-⑥|

④□⑤□
□□□□
⑥□□□
□□□□
31
□□□② |①-②-|
□④□⑤ |③-④⑤|
□□①□ |--⑥-|
□□③□ |--⑦-|

⑥⑥□□
⑥□⑥□
⑥□⑥□
□□□⑦
32
□⑦□⑤ |①②③④|
⑧□⑥□ |⑤⑥⑦⑧|
□③□① |⑨-⑩⑪|
④□②□ |--⑫-|

⑫□□⑫
□□□⑨
□□⑪□
□⑩□□
33
□□□□ |-①-②|
②□④□ |③④⑤-|
□③□⑤ |⑥-⑦-|
①□□① |⑧-⑨-|

⑦□⑧□
□⑦□⑧
⑥□⑨□
□⑥□⑨
34
②□③③ |①---|
②□①③ |②---|
②①③□ |③---|
②□③③ |④⑤-⑥|

□□□□
□□⑥□
□⑤□④
□□□□
35
①⑥⑥□ |①-②-|
□⑥□⑥ |③-④⑤|
②⑥⑤□ |--⑥-|
⑦④③⑦ |--⑦-|
36
②□□① |①-②-|
⑥□□③ |③④⑤⑥|
②⑤④① |⑦-⑧⑨|
□□□□ |-⑩-⑪|

□⑪⑨⑪
□⑧□□
□□□□
□⑩⑦⑩
37
⑦□□□ |-①②③|
①□⑥④ |④-⑤-|
□②③□ |⑥-⑦-|
⑤⑧⑧□ |⑧---|
38
③□□③ |①-②-|
□②□□ |③--④|
①□①□ |-⑤-⑥|
□□□□ |⑦-⑧-|

□□⑤□
④□□□
⑧⑥⑦⑤
⑧④□□
39
②④⑤② |①---|
④⑤⑤① |②--③|
④⑤⑤□ |--④-|
□③③① |⑤---|
40
④④□③ |①-②-|
④⑧□⑤ |③--④|
③⑥□□ |-⑤-⑥|
①②⑦① |⑦-⑧-|
41
□②□② |①---|
□□□□ |②--③|
□□①① |--④-|
③□③□ |⑤---|

⑤□⑤□
⑤⑤□□
⑤□⑤□
□□□④
42
□①□① |①---|
□②①② |----|
□①②□ |②---|
□□②□ |③-④-|

④□□④
□□□□
□□□□
③□□③
43
□□①□ |--①-|
②□□⑥ |②-③-|
□□⑤③ |④-⑤⑥|
④⑦□④ |--⑦-|
44
⑤②⑤② |①---|
□①①□ |②-③-|
⑤④④② |④---|
⑥□③⑥ |⑤-⑥-|
45
⑧⑤⑤③ |①-②③|
⑥①①⑥ |-④-⑤|
⑦□②□ |-⑥-⑦|
⑨④④⑨ |⑧-⑨-|
46
③③□□ |①---|
③②②④ |②---|
④②①① |③--④|
⑤□①⑤ |--⑤-|
47
④③②① |①-②-|
□⑨⑨⑤ |③-④-|
□⑥⑦③ |⑤-⑥⑦|
⑧□⑤⑧ |-⑧-⑨|
48
①②③⑤ |--①-|
⑧⑧⑦□ |②-③④|
□④□② |⑤-⑥⑦|
□⑥⑨⑨ |-⑧-⑨|
49
①②②① |----|
□③□□ |①---|
①⑤④① |②-③④|
□□⑥□ |-⑤⑥-|
50
②③③② |--①-|
□□④□ |②---|
②⑤⑥② |③-④⑤|
①⑦□① |-⑥⑦-|
51
①□□① |----|
□②②□ |①---|
①□□① |②-③④|
□□□□ |-⑤⑥-|

□□④⑥
□□□□
□□□□
⑤③□□
52
⑤⑦⑨□ |①②-③|
③□□② |④-⑤⑥|
①⑧□④ |-⑦-⑧|
□⑩⑩⑥ |⑨-⑩-|
53
□⑥⑧□ |--①②|
⑤③□① |③-④⑤|
□□②④ |-⑥-⑦|
□⑦□⑨ |⑧-⑨-|
54
②□□③ |①--②|
□②③□ |--③-|
②①①③ |④---|
④④④④ |----|
55
④④①① |--①-|
④⑥⑦① |②③-④|
②②③③ |-⑤-⑥|
⑧②③⑤ |⑦-⑧-|
56
□③□③ |①---|
□③③③ |②---|
②③□③ |③---|
□②①□ |④⑤-⑥|

④□⑤□
□□□□
⑥□□□
□□□□
57
□□□② |①-②-|
□④□⑤ |③-④⑤|
□□①□ |--⑥-|
□□③□ |--⑦-|

⑥⑥□⑦
⑥□⑥□
⑥□⑥□
□□□□
58
④□⑥□ |①-②③|
□⑤□⑦ |④⑤⑥⑦|
□②□□ |⑧--⑨|
①□③① |--⑩-|

□□□⑨
⑧□□□
⑧□□⑨
⑩□□⑩
59
⑦①①⑧ |-①-②|
□⑦⑧□ |③④⑤-|
②⑥⑨⑤ |⑥-⑦-|
⑥③④⑨ |⑧-⑨-|
60
③□③⑥ |①---|
③③③□ |②---|
⑤③④□ |③---|
②①①□ |④⑤-⑥|
61
□①□□ |①-②-|
②⑤□④ |③-④⑤|
□□□□ |--⑥-|
□③□□ |--⑦-|

□⑥⑥⑥
□□⑥□
□□⑥□
□□⑦⑦
62
①□④□ |①-②③|
□⑤□② |④⑤⑥⑦|
③①⑥□ |⑧-⑨⑩|
□⑦□□ |-⑪-⑫|

⑨□□⑧
⑫□□⑫
□□□⑩
⑪□□⑪
63
⑤①⑤⑦ |-①②③|
⑦⑥②□ |④-⑤-|
□③⑥⑦ |⑥---|
⑦□④□ |⑦---|
64
②③②③ |----|
④□③④ |①---|
②①①□ |②--③|
□□□□ |--④-|
65
①□□③ |--①-|
□⑤□□ |②-③-|
□⑦⑥□ |④-⑤⑥|
②□⑧④ |-⑦⑧-|
66
□□②② |--①-|
□□□□ |②---|
□□□□ |③--④|
①①□□ |--⑤-|

③③□□
③□□④
④□□□
⑤□□⑤
67
③③④④ |--①-|
③②②④ |②-③-|
□②①① |④--⑤|
⑥⑤①⑥ |--⑥-|
68
②③②③ |----|
④□③④ |①---|
②①①□ |②--③|
□□□□ |--④-|
69
①□□③ |--①-|
□⑤□□ |②-③-|
□⑦⑥□ |④-⑤⑥|
②□⑧④ |-⑦⑧-|
70
□□②② |--①-|
□□□□ |②---|
□□□□ |③--④|
①①□□ |--⑤-|

③③□□
③□□④
④□□□
⑤□□⑤
71
③③④④ |--①-|
③②②④ |②-③-|
□②①① |④--⑤|
⑥⑤①⑥ |--⑥-|
72
③③□□ |--①-|
③②②□ |②-③-|
□②①① |④⑤-⑥|
□□①□ |--⑦-|

□□④④
□⑦□④
□⑦□□
□⑤□⑥
73
①⑤□⑤ |①②③④--|
②□⑤□ |⑤---|
③□⑤□ |----|
④□⑤□ |----|
最終更新:2025年11月10日 01:52