アットウィキロゴ
悲報!ワイ!ニート! / Shu
BPM:165
Notes:934

1
□①①□ |①---|
③□⑤③ |②---|
②□□② |③④-⑤|
⑥□④⑦ |⑥-⑦-|
2
□②②⑤ |①-②-|
□④□□ |③---|
③①④③ |④-⑤-|
□□⑤□ |⑥-⑦-|

⑦□□□
□□⑥□
□⑥□□
□⑦□□
3
□①①□ |①---|
③□⑤③ |②---|
②□□② |③④-⑤|
⑥□④⑦ |⑥-⑦-|
4
③⑪②⑪ |①-②③|
⑦□⑩⑥ |④⑤⑥⑦|
⑤①①④ |⑧-⑨⑩|
□⑨⑧□ |⑪---|
5
①―<□ |①-②-|
□□□□ |③---|
□□□□ |④⑤-⑥|
□□□□ |⑦-⑧-|

②□□□
④□⑥④
③□□③
⑦□⑤⑧
6
□②②⑤ |①-②-|
□④□□ |③---|
③①④③ |④-⑤-|
□□⑤□ |⑥-⑦-|

⑦□□□
□□⑥□
□⑥□□
□⑦□□
7
□①①□ |①---|
③□⑤③ |②---|
②□□② |③④-⑤|
⑥□④⑦ |⑥-⑦-|
8
□∨∨□ |①---|
□||□ |----|
□①①□ |②---|
□□□□ |③--④|

③□□③
□④□□
□②②□
□□□□
9
⑦①⑤⑦ |①-②-|
③□④③ |③--④|
□⑧□□ |⑤-⑥-|
□⑥②□ |⑦--⑧|
10
□□⑥□ |①-②-|
□①⑤□ |③④⑤⑥|
□□④□ |--⑦-|
□⑦③② |⑧---|

□□□⑧
□⑧□□
□□□⑧
□□□□
11
④⑤□⑫ |①②③④|
③⑬⑭⑪ |⑤-⑥⑦|
②①⑨⑩ |⑧⑨⑩⑪|
⑥⑦⑧□ |⑫-⑬⑭|
12
□④①□ |①-②-|
□□□□ |③-④-|
□⑧⑦□ |⑤⑥⑦⑧|
③⑥⑤② |⑨---|

□□⑨□
□□□⑨
□□□□
□□□□
13
①□□□ |①-②-|
□⑩⑤⑥ |③④-⑤|
②□⑦□ |⑥-⑦-|
⑨⑧③④ |⑧⑨-⑩|
14
⑥⑤④③ |①-②-|
①□□□ |③④⑤⑥|
□②□□ |--⑦-|
□⑦⑦□ |⑧---|

□□□□
⑧□□⑧
□□□□
□□□□
15
⑥⑩⑩⑥ |①-②③|
□⑦⑧⑨ |④-⑤-|
□②③④ |⑥-⑦⑧|
①⑤⑤① |⑨-⑩-|
16
□□□□ |①-②-|
□□□□ |③-④-|
①②③□ |⑤---|
①□③④ |⑥---|

⑤□□⑤
|□□|
∧□□∧
□□□□

⑥□□⑥
□□□□
□□□□
□□□□
17
□④①□ |①--②|
□②⑤□ |--③-|
①⑤②④ |④--⑤|
□③⑦⑥ |-⑥⑦-|
18
④□①④ |①--②|
□⑤⑤□ |③-④-|
①⑦②③ |⑤---|
⑥□⑥□ |⑥-⑦-|
19
⑤⑥①⑤ |①-②③|
①□□② |--④-|
□□④③ |⑤--⑥|
□④□⑥ |--⑦-|

□□⑦□
□□□□
□□□□
⑦□□□
20
□□□□ |①---|
□①①□ |----|
□||□ |②-③-|
□∧∧□ |④-⑤-|

□□□⑤
□②②□
□□④□
□□□③
21
①⑤⑤□ |①-②-|
②⑥⑦□ |③-④-|
③①□□ |⑤-⑥⑦|
④③□□ |⑧-⑨-|

⑨□□□
□□□□
□⑧□□
□□□□
22
⑦⑤⑤① |①-②-|
□□□② |③-④-|
□□①③ |⑤---|
⑥□③④ |⑥-⑦-|
23
④□□② |①---|
③□□① |--②-|
□③①□ |③---|
□①③□ |--④-|
24
□⑤⑤□ |①-②-|
□②④① |③-④-|
⑤□①⑤ |⑤---|
③①□③ |----|
25
②□④② |①---|
③□⑤④ |②--③|
□①①□ |④-⑤-|
□□□□ |⑥-⑦-|

□□□□
□□□□
□□⑥□
⑥□⑦□
26
□④⑤□ |①-②-|
□③□□ |③-④-|
⑤②□① |⑤---|
⑥①⑥③ |⑥-⑦-|

□□□□
□□□□
□⑦□□
□□□□
27
□②②⑦ |①---|
①□□① |②---|
③⑥⑤④ |③-④⑤|
□③□□ |⑥-⑦-|
28
□②②□ |①---|
□□□□ |②-③-|
③□□③ |④⑤--|
①□□① |⑥⑦--|

④<□□
□□□□
□□□□
□④□□

⑤□>⑥
□□□□
□□□□
□□⑥□

□□□⑦
□□□□
□□□□
□□□□
29
□②②④ |①---|
⑤③③□ |②---|
②①①② |③-④⑤|
⑦□□⑥ |⑥-⑦-|
30
⑥□⑤□ |①-②-|
□③④⑤ |③-④-|
①②③□ |⑤---|
□①⑦⑥ |⑥-⑦⑧|

□□□□
□□□□
□□□□
□⑧□□
31
□⑤④② |①---|
⑥□□⑥ |②---|
①③③① |③-④⑤|
②⑦□□ |⑥-⑦-|
32
□□□□ |①---|
③③③③ |②---|
②□□② |③---|
①④□① |④---|
33
⑥□□② |①--②|
□⑧④□ |③-④-|
⑦③⑦③ |⑤--⑥|
①⑤①⑤ |⑦-⑧-|
34
□□□② |①-②-|
□□③□ |③-④-|
□③□④ |⑤---|
①⑤①⑤ |⑥-⑦⑧|

□□⑧⑦
□□□□
⑥□□□
□□⑥□
35
□①⑧□ |①---|
③④⑤□ |②-③④|
⑦□①② |⑤-⑥-|
②⑤⑦⑥ |⑦-⑧-|
36
①⑤⑤③ |①-②-|
②④④① |③---|
□□□③ |④-⑤-|
□□□□ |⑥⑦⑧-|

⑥□□□
□□□⑦
⑧□□□
□□□□
37
⑥□□② |①--②|
□⑧④□ |③-④-|
⑦③⑦③ |⑤--⑥|
①⑤①⑤ |⑦-⑧-|
38
□□□② |①-②-|
⑤⑧③⑤ |③-④-|
□③⑦④ |⑤-⑥-|
①⑦①⑥ |⑦-⑧-|
39
③□□① |①-②-|
⑥⑦⑧④ |③-④-|
①②□③ |⑤-⑥⑦|
⑤⑧⑤□ |⑧-⑨⑩|

□□⑩⑨
□□□□
□□□□
□□□□
40
③①□□ |①---|
□□□② |②---|
②□①□ |③---|
□□□③ |④---|

□□□□
□④④□
□④④□
□□□□
41
□□□□ |①---|
□>―② |----|
□>―② |②---|
①――< |----|
42
□□□□ |①---|
□□□① |----|
□□□① |②---|
②□□□ |----|
43
②⑥⑤① |①---|
□□□□ |②---|
□②①□ |③-④-|
④□□③ |⑤-⑥-|
44
□□□④ |①---|
①①①① |②---|
②②②② |③---|
③③③③ |④---|
45
□③⑥⑤ |①---|
②④□□ |②-③-|
①□④① |④⑤-⑥|
□□②□ |⑦--⑧|

□□□□
□□⑧□
□⑦□⑦
□□□□
46
□□□□ |①-②-|
□>―② |③---|
□□□□ |④-⑤-|
□□□① |⑥-⑦-|

⑦□□⑤
③④⑥③
①⑥④□
③⑦⑤□
47
□②③⑤ |①---|
②④⑦⑥ |②-③-|
①⑦④① |④⑤-⑥|
□□□□ |⑦---|
48
⑤①④⑤ |①--②|
②③□④ |--③-|
①⑤③① |-④--|
②④②③ |⑤---|
49
□③④□ |①-②-|
③⑤②□ |③-④-|
①⑦□① |⑤-⑥-|
⑦⑤⑥□ |⑦---|
50
⑥□□④ |①---|
②③⑤② |②---|
①⑤③① |③-④-|
□⑥④□ |⑤-⑥-|
51
□②⑤④ |①---|
②③□□ |②---|
①□③① |③④-⑤|
□□□□ |⑥---|

□□□□
□□□□
□⑥□⑥
□□□□
52
□□□□ |①---|
①――< |----|
①――< |--②-|
□②②□ |③---|

□③③□
③□□□
③□□□
□□□□
53
②□□□ |①---|
□①①□ |②---|
□□□□ |③---|
――① |④---|

□□□□
□□□□
――③
④③③③
54
□①①□ |①---|
――① |②---|
②□□① |③-④-|
□□□□ |⑤-⑥-|

⑥□□④
□③⑤③
□⑤③□
□⑥④□
55
□②③□ |①---②-|
□□□□ |--③---|
□□□① |④---|
①――< |⑤---|

□□□⑤
□④④□
④――<
④□□□
56
□□□□ |①---|
①――< |②-③-|
①□□□ |④---|
□①①② |⑤---|

□④④□
④□□③
□⑤⑤□
□□□□
57
□⑧□□ |①---|
②⑦⑦② |②-③④|
③□□⑤ |-⑤⑥-|
①④⑥① |⑦--⑧|
58
―②□ |①-②-|
①□□□ |③---|
□□□□ |④-⑤-|
□□□□ |⑥-⑦-|

⑦□③⑤
□④⑥□
③⑥④□
③⑦⑤□
59
□①①□ |①---|
③□⑤③ |②---|
②□□② |③④-⑤|
⑥□④⑦ |⑥-⑦-|
60
①②③④ |①②③④|
⑨⑩⑪⑫ |⑤⑥⑦⑧|
⑤⑥⑦⑧ |⑨⑩⑪⑫|
⑬⑭⑮⑯ |⑬⑭⑮⑯|
61
④①□□ |①---|
□③□⑤ |②--③|
⑥□□② |④-⑤-|
□□□⑦ |⑥-⑦-|
62
□②□□ |①---|
③②②□ |②---|
③③②② |③---|
①③③□ |④-⑤-|

□□□□
□□□□
□□□□
④□□⑤
63
②□□② |①---|
③①□④ |②--③|
②⑦④② |④-⑤-|
□⑥⑤⑥ |⑥-⑦-|
64
□②③□ |①-②-|
⑥①④⑥ |③-④-|
□⑦⑤① |⑤---|
③⑤□□ |⑥-⑦-|
65
□②②⑦ |①---|
□□□□ |②---|
③⑥⑤④ |③-④⑤|
①③①□ |⑥-⑦-|
66
□⑤□□ |①②③④|
①②③④ |⑤-⑥-|
⑥□□⑥ |⑦⑧--|
□□□□ |⑨⑩--|

⑦<□□
□□□□
□□□□
□⑦□□

⑧□>⑨
□□□□
□□□□
□□⑨□

□□□⑩
□□□□
□□□□
□□□□
67
□②②④ |①---|
⑤③③□ |②---|
②①①② |③-④⑤|
⑦□□⑥ |⑥-⑦-|
68
□⑦⑤□ |①-②-|
□③④⑤ |③-④-|
①②③□ |⑤---|
⑥①□⑥ |⑥-⑦-|
69
□⑤③⑤ |①---|
⑥□⑥□ |②-③-|
④②②① |④---|
□①④□ |⑤-⑥-|
70
□□□□ |①-②③|
□⑤□⑤ |④-⑤-|
④③②□ |⑥---|
⑥①⑥① |⑦-⑧⑨|

□⑧□□
□□⑨□
□□□□
□⑦□⑦
71
□□□③ |①-②-|
⑩⑨⑧⑦ |③---|
⑥①□② |④⑤-⑥|
□④⑤□ |⑦⑧⑨⑩|
72
③□①③ |①-②-|
□□□□ |③---|
□②□□ |④---|
□□□□ |⑤---|

□□□□
□□□□
④<>④
□□□□

□□□□
□□□□
⑤□□⑤
□□□□
73
⑬①①⑫ |①---|
⑤⑨⑧④ |②③④⑤|
□⑦⑥□ |⑥⑦⑧⑨|
③⑪⑩② |⑩⑪⑫⑬|
74
⑫④③⑩ |①②③④|
⑧⑨⑪⑦ |⑤⑥⑦⑧|
②⑪⑨① |⑨-⑩-|
⑥⑫⑩⑤ |⑪-⑫-|
75
⑩③④⑤ |①---|
②⑦⑧⑨ |②③④⑤|
①⑪⑫① |⑥⑦⑧⑨|
⑥□□□ |⑩⑪⑫⑬|

□□□□
□□□□
□□□⑬
□□□□
76
⑩□□⑩ |①②③④|
⑨⑥⑦⑧ |⑤⑥⑦⑧|
①⑩⑩□ |⑨---|
⑤②③④ |⑩---|
77
□①①□ |①---|
③□⑤③ |②---|
②□□② |③④-⑤|
⑥□④⑦ |⑥-⑦-|
78
□②②⑤ |①-②-|
□④□□ |③---|
③①④③ |④-⑤-|
□□⑤□ |⑥-⑦⑧|

⑦□□□
⑧□⑥□
□⑥□□
□⑦□□
79
□①①□ |--①-|
□□⑤③ |②---|
②□□② |③④-⑤|
③⑥④⑦ |⑥-⑦-|
80
①②③④ |①②③④|
⑨⑩⑪⑫ |⑤⑥⑦⑧|
⑤⑥⑦⑧ |⑨⑩⑪⑫|
⑬⑭⑮⑯ |⑬⑭⑮⑯|
81
①□□□ |①-②-|
|□□□ |③-④-|
∧□□□ |⑤-⑥⑦|
□□□□ |⑧-⑨⑩|

②□□③
□□□|
□□②∧
□□□□

□□□④
□□□□
□④□□
□□□□

□□□□
□⑥⑦□
⑤――<
□□□□

□⑨⑩□
□□□□
⑧□□□
□□□□
82
□□□□ |①---|
――① |②---|
□□□□ |③---|
□②②□ |----|

□□□□
□□□③
□□□□
□□□□
83
①⑤③① |①-②-|
□□□□ |③-④-|
□①□□ |⑤-⑥-|
□⑥④② |⑦-⑧-|

⑦□□□
□□□□
□□□□
⑧□□□
84
□□④② |①-②-|
①□①□ |③-④-|
□④□④ |⑤---|
□⑤③① |⑥---|

∨□□∨
|□□|
|□□|
⑥□□⑥
85
□□□□ |----|
□□□□ |----|
□□□□ |----|
□□□□ |----|
86
□□□□ |①---|
□①①□ |----|
□□□□ |----|
①①①① |----|
最終更新:2025年11月10日 02:15