BPM:152
1
□□□□ |①-②-|
④⑧⑥② |③-④-|
③⑦⑤① |⑤-⑥-|
□□□□ |⑦-⑧-|
2
④□□② |①-②-|
□□⑦□ |③-④-|
□⑥□□ |⑤-⑥-|
③□⑤① |⑦---|
3
□□③② |①-②-|
①□<□ |③-④-|
□□□□ |⑤-⑥-|
□□④① |⑦-⑧-|
⑥⑦□□
□>□⑤
□□□□
⑤⑧□□
□□□□
3□□7
□□□□
□□□□
4
□□④② |①-②-|
□□□□ |③-④-|
①□<□ |⑤-⑥-|
□□③① |⑦-⑧-|
⑤⑧□□
□□□□
□>□⑤
⑥⑦□□
□□□□
□□□□
3□□7
□□□□
5
□□③② |①-②-|
①□<□ |③-④-|
□□□□ |⑤-⑥-|
□□④① |⑦-⑧-|
⑥⑦□□
□>□⑤
□□□□
⑤⑧□□
□□□□
3□□7
□□□□
□□□□
6
□□③② |①-②-|
□□□□ |③-④-|
①□<□ |⑤-⑥-|
□□④① |⑦-⑧-|
□□□□
□□□□
□>□⑤
⑤□□□
□□□⑧
⑦□⑥□
□⑥⑦□
□□□□
□□□□
□□□□
3□□7
□□□□
7
④□④□ |①---|
□③□∨ |②-③-|
∧□⑥□ |④---|
□①□① |⑤-⑥-|
5□□□
□□□□
□□□□
□□□2
8
□⑤⑦□ |①-②-|
②□□④ |③-④-|
□⑥⑧□ |⑤-⑥-|
①□□③ |⑦-⑧-|
9
④□④⑥ |①---|
□③□∨ |②-③-|
∧□□□ |④---|
□①□① |⑤-⑥-|
5□□□
□□□□
□□□□
□□□2
10
⑤□□⑧ |①-②-|
②⑥⑦④ |③-④-|
⑤□□⑧ |⑤-⑥-|
□①③□ |⑦-⑧-|
11
④□④□ |①---|
□③□∨ |②-③-|
∧□⑥□ |④---|
□①□① |⑤-⑥-|
5□□□
□□□□
□□□□
□□□2
12
□⑤⑦□ |①-②-|
②□□④ |③-④-|
□⑥⑧□ |⑤-⑥-|
①□□③ |⑦-⑧-|
13
④□>④ |①---|
③③□ |②---|
②□>② |③---|
①①□ |④---|
□□□□
□4□□
□□□3
□2□□
14
⑤□□1 |①-②-|
□⑥□□ |③-④-|
⑦②□④ |⑤-⑥-|
□⑧③□ |⑦-⑧-|
15
□□③② |①-②-|
①□<□ |③-④-|
□□□□ |⑤-⑥-|
□□④① |⑦-⑧-|
⑥⑦□□
□>□⑤
□□□□
⑤⑧□□
□□□□
3□□7
□□□□
□□□□
16
□□④② |①-②-|
□□□□ |③-④-|
①□<□ |⑤-⑥-|
□□③① |⑦-⑧-|
⑤⑧□□
□□□□
□>□⑤
⑥⑦□□
□□□□
□□□□
3□□7
□□□□
17
□□③② |①-②-|
①□<□ |③-④-|
□□□□ |⑤-⑥-|
□□④① |⑦-⑧-|
⑥⑦□□
□>□⑤
□□□□
⑤⑧□□
□□□□
3□□7
□□□□
□□□□
18
□□③② |①-②-|
□□□□ |③-④-|
①□<□ |⑤-⑥-|
□□④① |⑦-⑧-|
□□□□
□□□□
□>□⑤
⑤□□□
□□□□
⑦⑥⑦⑧
□⑥□□
□□□□
□□□□
□□□□
3□□7
□□□□
19
④□④□ |①---|
□③□∨ |②-③-|
∧□⑥□ |④---|
□①□① |⑤-⑥-|
5□□□
□□□□
□□□□
□□□2
20
□⑤⑦□ |①-②-|
②□□④ |③-④-|
□⑥⑧□ |⑤-⑥-|
①□□③ |⑦-⑧-|
21
④□④□ |①---|
□③□∨ |②-③-|
∧□⑥□ |④---|
□①□① |⑤-⑥-|
5□□□
□□□□
□□□□
□□□2
22
⑤□□⑧ |①-②-|
②⑥⑦④ |③-④-|
⑤□□⑧ |⑤-⑥-|
□①③□ |⑦-⑧-|
23
④□④□ |①---|
□③□∨ |②-③-|
∧□⑥□ |④---|
□①□① |⑤-⑥-|
5□□□
□□□□
□□□□
□□□2
24
□⑤⑦□ |①-②-|
②□□④ |③-④-|
□⑥⑧□ |⑤-⑥-|
①□□③ |⑦-⑧-|
25
④□>④ |①---|
③③□ |②---|
②□>② |③---|
①①□ |④---|
□□□□
□4□□
□□□3
□2□□
26
□⑥□1 |①-②-|
⑤□□⑧ |③-④-|
□②⑦④ |⑤-⑥-|
□□③□ |⑦-⑧-|
27
①□□< |①---|
□□□□ |②---|
①□□□ |③---|
□□□① |④---|
□□③②
②③□□
□④□□
□□④□
4□□□
□□□□
□□□□
□□□□
28
③②□□ |①---|
□□②③ |②---|
□□①④ |③---|
④①□□ |④---|
29
⑦⑥③② |①-②-|
②③⑥⑦ |③-④-|
①④⑤⑧ |⑤-⑥-|
⑧⑤④① |⑦-⑧-|
30
□□⑥⑧ |①②③④|
②④⑪⑩ |⑤⑥⑦⑧|
①③□⑫ |⑨-⑩⑪|
□⑨⑤⑦ |⑫---|
31
①①①③ |①---|
②①□□ |②-③-|
①①①□ |--④-|
□□□□ |⑤-⑥-|
⑥□⑤□
□□□□
□□□□
④□□□
32
□□□④ |①---|
③①①① |②-③-|
□□①② |④---|
□①①① |--⑤-|
□□⑤□
□⑤□□
□□□□
□□□□
33
□□□□ |①-②-|
②□④② |③-④-|
□③□□ |⑤---|
①④①③ |⑥---|
⑤⑤∨∨
□□□□
∧∧⑥⑥
□□□□
66□□
□□□□
□□□□
□□□□
34
□□④□ |①-②-|
③①②④ |③-④-|
□③11 |⑤-⑥-|
①□□② |⑦-⑧-|
⑥□□⑦
□∨∨□
⑥□□⑦
□⑤⑤□
□□□□
□⑧⑧□
□□□□
□77□
35
□①③□ |①-②-|
②□□□ |③---|
□③②□ |④-⑤-|
□□□① |⑥-⑦-|
□□□⑦
⑦⑤⑤□
④□□⑥
□⑥④□
36
①①□□ |①---|
□□□□ |②-③-|
∧∧□□ |④---|
□□□□ |⑤-⑥-|
□□②□
□□□□
□③②□
③□□□
□□□□
□□∨∨
□□□□
□□④④
□□□□
⑥□<□
⑥□<□
□□□□
22□□
□□□□
□□□□
□□55
37
⑦②⑦① |--①-|
□⑤②⑤ |②-③-|
□⑥①③ |④-⑤-|
④③④⑥ |⑥-⑦-|
□□□□
1□□□
1□□□
□□□□
38
□①□□ |--①-|
□□②③ |②---|
①□□② |③-④-|
④④③□ |----|
39
①①①③ |①---|
②①□□ |②-③-|
①①①□ |--④⑤|
□□□□ |⑥-⑦-|
⑦□⑥□
□□□□
□⑤□□
④□□□
40
□□□④ |①---|
③①①① |②-③-|
□□①② |④---|
□①①① |--⑤-|
□□⑤□
□⑤□□
□□□□
□□□□
41
□□□□ |①-②-|
②□④② |③-④-|
□③□□ |⑤-⑥-|
①④①③ |⑦-⑧-|
⑦⑥⑥⑧
□□□□
⑤□⑤⑧
□□⑦□
42
□□④□ |①-②-|
③①②④ |③-④-|
□③□□ |⑤-⑥-|
①□□② |⑦-⑧-|
⑥□□⑦
□∨∨□
⑥□□⑦
□⑤⑤□
□⑧□□
□□⑧□
□□□□
□77□
43
□□③□ |①-②-|
②④□④ |③-④-|
□③②□ |⑤---|
①□□① |⑥---|
⑤<□□
□□□□
⑤<>⑥
□>⑥□
6□□□
□□□□
6□□□
□□□□
44
∨□□② |①---|
①□②∧ |②---|
□∨∧□ |③---|
□①□□ |④-⑤-|
□③③□
□□□⑤
⑤∧∧□
□□□□
□443
2□3□
□□□1
□21□
45
②□□③ |①-②-|
③□□□ |③-④-|
□①②④ |⑤-⑥-|
□④□① |⑦-⑧-|
⑧□⑧□
□⑥□⑥
□⑦□□
⑤□⑤⑦
46
□①□□ |--①‐|
□□②③ |②---|
①⑤⑤② |③-④-|
④④③□ |--⑤-|
47
⑥⑦③② |①-②-|
□□□□ |③-④-|
①□□< |⑤-⑥-|
⑤⑧④① |⑦-⑧-|
48
⑤⑧④② |①-②-|
□□□□ |③-④-|
□□□□ |⑤-⑥-|
⑥⑦③① |⑦-⑧-|
□□□□
□□□□
5□□□
□□□□
49
□□③② |①-②-|
①□<□ |③-④-|
□□□□ |⑤-⑥-|
□□④① |⑦-⑧-|
⑥⑦□□
□>□⑤
□□□□
⑤⑧□□
□□□□
3□□7
□□□□
□□□□
50
□□③② |①-②-|
□□□□ |③-④-|
①□<□ |⑤-⑥-|
□□④① |--⑦-|
□□□□
□□⑥⑦
□□⑥⑤
⑤□□⑦
□□□□
□□□□
3□□□
□□□□
51
①□□④ |①-②-|
②①④⑤ |③---|
③②⑤⑥ |④-⑤-|
□③⑥□ |⑥---|
52
④⑤□⑨ |①②③④|
③⑥⑨⑩ |⑤⑥⑦⑧|
②⑦⑩⑪ |⑨-⑩-|
①⑧⑪□ |⑪---|
53
□①②③ |①-②-|
①②③□ |③---|
□⑥⑤④ |④-⑤-|
⑥⑤④□ |⑥---|
54
⑦⑥③② |①②③④|
⑧⑤④① |⑤⑥⑦⑧|
⑨⑩□□ |⑨⑩⑪-|
⑫⑪□⑫ |⑫---|
55
④□□① |①-②-|
⑤④①② |③---|
⑥⑤②③ |④-⑤-|
□⑥③□ |⑥---|
56
⑫□③② |①②③④|
□□④① |⑤⑥⑦⑧|
⑪⑫⑤⑥ |⑨⑩⑪-|
⑩⑨⑧⑦ |⑫---|
57
□③②① |①-②-|
③②①④ |③-④⑤|
⑤⑧⑦⑥ |⑥-⑦-|
⑧⑦⑥□ |⑧---|
58
□①②□ |①-②-|
①⑤⑤② |③-④-|
④⑤⑤③ |⑤-⑥-|
⑥④③⑥ |⑦⑧⑨⑩|
⑨□□⑩
⑦□□⑧
□□□□
□□□□
59
□①□□ |--①-|
□□②③ |②---|
①□□② |③-④-|
④④③□ |⑤-⑥-|
□□□∨
□□□□
□□□□
□□□⑤
□□□□
□□□□
□□□□
□□□6
60
①①①③ |①---|
②①□□ |②-③-|
①①①□ |--④⑤|
□□□□ |⑥-⑦-|
⑦□⑥□
□□□□
□⑤□□
④□□□
61
□□□④ |①---|
③①①① |②-③-|
□□①② |④---|
□①①① |--⑤-|
□□⑤□
□⑤□□
□□□□
□□□□
62
□□□□ |①-②-|
②□④② |③-④-|
□③□□ |⑤-⑥-|
①④①③ |⑦-⑧-|
⑦⑥⑥⑧
□□□□
⑤□⑤⑧
□□⑦□
63
□□④□ |①-②-|
③①②④ |③-④-|
□③□□ |⑤-⑥-|
①□□② |⑦-⑧-|
⑥□□⑦
□∨∨□
⑥□□⑦
□⑤⑤□
□□□□
□⑧⑧□
□□□□
□77□
64
□①③□ |①-②-|
②□□④ |③-④-|
□③②□ |⑤-⑥-|
④□□① |⑦-⑧-|
□□□⑧
⑧⑥⑥□
⑤□□⑦
□⑦⑤□
65
①①□□ |①---|
□□□□ |②-③-|
∧∧□□ |④---|
□□□□ |⑤-⑥-|
□□②□
□□□□
□③②□
③□□□
□□□□
□⑥∨∨
⑥□□□
□□④④
22□□
□□□□
□□□□
□□55
66
①③①② |①-②-|
②□③□ |③-④-|
□□□④ |⑤-⑥-|
□④□□ |⑦-⑧-|
⑧□⑧□
□⑥□⑥
□⑦□□
⑤□⑤⑦
67
□①□③ |--①-|
□□②③ |②---|
①□□② |③-④-|
④④□□ |----|
68
①①①③ |①---|
②①□□ |②-③-|
①①①□ |--④⑤|
□□□□ |⑥-⑦-|
⑦□⑥□
□□□□
□⑤□□
④□□□
69
□⑤⑤④ |①---|
③①①① |②-③-|
□□①② |④---|
□①①① |--⑤-|
70
□□□□ |①-②-|
②④①④ |③-④-|
①□□② |⑤-⑥-|
□③③□ |⑦-⑧-|
⑦□□⑥
□□⑦□
⑧⑥⑤⑧
⑤□□□
71
□①②□ |①-②-|
①□□② |③-④-|
□④③□ |⑤-⑥-|
④□□③ |⑦-⑧-|
⑥⑧⑧⑦
□∨∨□
⑥□□⑦
□⑤⑤□
□□□□
□□□□
□□□□
□77□
72
□□□□ |①-②-|
②①④② |③-④-|
□④①□ |⑤-⑥-|
③□□③ |⑦---|
⑤⑥□⑥
□⑦□□
□□□⑤
□□⑦□
73
□□□□ |①-②-|
∨□∨□ |③-④-|
①□①□ |⑤-⑥-|
□①□□ |--⑦-|
□>③□
□□>③
□□□③
□□□□
□⑤□□
⑤□⑤□
∧⑦∧□
□□□⑦
□□4□
6□64
2□2□
□□□□
74
②③②① |①-②-|
□□□□ |③-④-|
①□③④ |⑤-⑥-|
□④□□ |⑦-⑧-|
⑧□⑧□
□⑥□⑥
□⑦□□
⑤□⑤⑦
75
□①□□ |--①-|
□□③□ |②---|
①□□② |③-④-|
④④②③ |--⑤-|
□□□□
□□□□
⑤□□□
□□□□
76
□①①□ |①---|
①□□① |----|
□□□□ |----|
□∧∧□ |----|
□□□□
□□□□
□①①□
□□□□
77
□11□ |①---|
□□□□ |----|
□□□□ |----|
□□□□ |----|
最終更新:2025年11月10日 01:53