BPM:110
1
□□④□ |--①-|
⑦③□① |②-③-|
□□②⑤ |④-⑤-|
□⑥□□ |⑥-⑦-|
2
□⑤⑤□ |①-②-|
□□□① |③-④--⑤|
□□④□ |----|
□③②□ |⑥-⑦-|
□□□□
⑥□□⑥
□□□□
⑦□□⑦
3
□□⑥□ |--①-|
⑤②□□ |②-③-|
①□③⑦ |④-⑤-|
□④□□ |⑥-⑦-|
4
①⑦□□ |①-②-|
□⑤⑤③ |③--④-⑤|
□②□⑥ |----|
□□④□ |---⑥-⑦|
5
□□①□ |①-②-|
②⑤④□ |③-④-|
□③⑥⑧ |⑤-⑥-|
⑦□□□ |⑦-⑧-|
6
①③③① |①---|
□□□□ |②---|
□②②④ |③---|
□□□□ |--④-|
7
□□③□ |①-②-|
□④□□ |③-④--⑤|
□②①□ |----|
□⑤⑤⑥ |--⑥-|
8
③①③① |①-②-|
□④□□ |③-④--⑤|
□②□② |⑥-⑦-|
□□□⑤ |⑧-⑨-|
□⑧⑨□
⑦□□⑨
⑥□□⑧
□⑥⑦□
9
⑧⑤④□ |①-②-|
⑤②□④ |③-④-|
□③②⑦ |⑤-⑥-|
①□⑦⑥ |⑦-⑧-|
10
⑤⑥①□ |①-②-|
⑦□④① |③-④--⑤|
②③□⑥ |----|
□②⑦⑤ |⑥-⑦-|
11
□□□③ |--①-|
□□②□ |②-③-|
①□□□ |④-⑤-|
□①□□ |⑥-⑦-|
□⑤⑦□
⑤□□⑦
⑥□□④
□⑥④□
12
①□□① |①-②-|
□③③⑦ |③--④-⑤|
□□②□ |----|
④⑥□⑤ |---⑥-⑦|
13
④□③② |①-②-|
□①□□ |③-④-|
③□□□ |⑤-⑥-|
□□□□ |⑦-⑧-|
□□□□
□⑧⑦⑤
□⑦⑧□
□⑤□⑥
14
□①□□ |①---|
□□□□ |②---|
②□□① |③---|
□②□□ |--④-|
□③④③
□□③④
□③□③
□□□□
15
□□⑤□ |①-②-|
□④□⑤ |③-④--⑤|
①□③② |--⑥-|
□①②□ |⑦-⑧-|
□□□□
⑥□⑥□
□⑦□⑦
⑧□⑧□
16
⑧④□□ |①-②---|
④①⑦③ |③-④-|
□⑥②⑨ |⑤-⑥⑦-⑧|
□③⑩⑤ |--⑨⑩--|
17
□①②① |①---|
⑥③□② |②-③-|
⑤⑥③□ |④-⑤-|
④⑤⑥□ |⑥---|
18
□②□① |①---|
②①③□ |②-③-|
□③①□ |④-⑤-|
①□□□ |⑥---|
□□□□
□□□⑥
□□⑥⑤
□⑥⑤④
19
①□□① |①---|
□□□□ |②---|
□②②□ |③-④-|
□□□□ |⑤-⑥-|
④□□⑥
□□□□
□□□□
③□□⑤
20
□④①□ |①-②-|
④②③① |③-④-|
□③②□ |⑤---|
⑤□□⑤ |----|
21
□□①① |①---|
□□□□ |②-③-|
□②□□ |④-⑤-|
□□③□ |⑥-⑦-|
□□⑦□
□⑥□□
□□⑤□
□④□□
22
①①□□ |①---|
□③③□ |②---|
②②□□ |③---|
□□□④ |--④-|
23
③□□① |①--②|
□□□□ |--③-|
④□□② |-④-⑤|
①④②③ |⑥-⑦-⑧-|
□⑧□□
□⑦□□
□⑥⑦⑧
⑤□□□
24
⑥□⑥□ |①---|
①⑤②⑤ |②---|
④□④□ |③-④-|
□③①③ |⑤-⑥-|
25
□②□① |①-②-|
□□□□ |③-④⑤-⑥|
□②□① |⑦-⑧-|
□□□□ |⑨-⑩-|
□□□□
□③③□
⑤□□⑦
□④⑥□
□⑧□⑧
⑨□⑨□
□□□□
□⑩□⑩
26
①□②□ |①-②-|
□□□□ |③-④⑤-⑥|
①□②□ |⑦-⑧-|
□□□□ |⑨-⑩-|
□□□□
□③③□
⑦□□⑤
□⑥④□
⑧□⑧□
□⑨□⑨
□□□□
⑩□⑩□
27
②⑧□② |--①-|
⑦□□□ |②-③④-⑤|
④①①⑥ |⑥-⑦⑧--|
□③⑤□ |⑨---|
□□□□
□□□□
□⑨⑨□
□□□□
28
①□□① |①-②-|
□□④□ |③-④-|
□③□□ |⑤---|
□□②□ |⑥---|
⑥□⑤□
⑤□□⑥
⑥□□⑤
□⑤□⑥
29
□②□① |①-②-|
□□□□ |③-④⑤-⑥|
□②□① |⑦-⑧-|
□□□□ |⑨-⑩-|
□□□□
□③③□
⑤□□⑦
□④⑥□
□⑧□⑧
⑨□⑨□
□□□□
□⑩□⑩
30
①□②□ |①-②-|
□□□□ |③-④⑤-⑥|
①□②□ |⑦-⑧-|
□□□□ |⑨-⑩-|
□□□□
□③③□
⑦□□⑤
□⑥④□
⑧□⑧□
□⑨□⑨
□□□□
⑩□⑩□
31
②⑦⑦② |--①-|
□□□□ |②-③④-⑤|
④①①⑥ |⑥-⑦-|
⑧③⑤⑧ |⑧---|
32
①□□① |①-②-|
□□④□ |③-④-|
□③□□ |⑤---|
□□②□ |⑥---|
⑥□⑤□
⑤□□⑥
⑥□□⑤
□⑤□⑥
33
□③⑥□ |--①-|
③⑤②⑥ |②-③-|
④②⑤① |--④-|
□④①□ |⑤-⑥-|
34
□□□□ |①-②-|
①□①□ |③---|
□②□② |④---|
③□③□ |--⑤-|
□④④□
④□□④
□□□□
⑤□□⑤
35
□□③□ |①-②--③|
□①□③ |--④--⑤|
④⑤□□ |⑥-⑦-|
□④②□ |⑧---|
□⑦□□
⑧□⑥□
□□□⑦
□□⑧□
36
①□□⑤ |①---|
□①④□ |----|
□③①□ |②-③-|
②□□① |④-⑤-|
37
□①②⑧ |①-②-|
③⑨□□ |③-④⑤-⑥|
□⑦⑤□ |⑦-⑧-|
⑥□⑩④ |⑨-⑩-|
38
□③□⑧ |①-②-|
①⑦⑤② |③-④⑤-⑥|
⑥⑨□④ |⑦-⑧-|
□□⑩□ |⑨-⑩-|
39
④□□⑥ |--①-|
□③⑤□ |②-③④-⑤|
①□□② |⑥-⑦⑧--|
□□□□ |⑨---|
□⑧□□
⑦□□□
□□□⑨
□□□□
40
⑤□④⑤ |①-②-|
□③□□ |③-④-|
⑥□②⑥ |⑤---|
□①□□ |⑥---|
41
□□□□ |----|
□□□□ |----|
□□□□ |----|
□□□□ |----|
42
④□④□ |----|
□③□③ |----|
②□②□ |①-②-|
□①□① |③-④-|
43
□②□① |①-②-|
⑦③③⑤ |③-④⑤-⑥|
□②□① |⑦-⑧-|
□⑥④□ |⑨-⑩-|
⑧⑧□□
□⑨⑨□
□□⑩⑩
□□□□
44
③⑤⑦③ |①-②-|
①□□② |③-④⑤-⑥|
④□□⑥ |⑦-⑧-|
①□□② |⑨-⑩-|
□□□□
□□⑧⑧
□⑨⑨□
⑩⑩□□
45
②□□① |--①-|
□⑥④□ |②-③④-⑤|
②□□① |⑥-⑦⑧--|
⑤□□③ |⑨---|
□□□⑧
□□□□
□□⑦□
□⑨⑨□
46
□①④□ |①-②-|
□□□□ |③-④-|
④②③① |⑤---|
②□□③ |⑥---|
⑤□□⑤
□⑤⑤□
□□□□
⑥⑥⑥⑥
47
□②□① |①-②-|
⑦③③⑤ |③-④⑤-⑥|
□②□① |⑦-⑧-|
□⑥④□ |⑨-⑩-|
⑧⑧□□
□⑨⑨□
□□⑩⑩
□□□□
48
③⑤⑦③ |①-②-|
①□□② |③-④⑤-⑥|
④□□⑥ |⑦-⑧-|
①□□② |⑨-⑩-|
□□□□
□□⑧⑧
□⑨⑨□
⑩⑩□□
49
②⑦⑦① |--①-|
⑥□□④ |②-③④-⑤|
②□□① |⑥-⑦-|
⑧⑤③⑧ |⑧---|
50
□②④□ |①-②-|
□①③□ |③-④-|
④③①② |⑤---|
□□□□ |⑥---|
⑥□□⑤
□⑤⑥□
□⑥⑤□
⑤□□⑥
51
③□□⑥ |--①-|
②③⑥⑤ |②-③-|
①②⑤④ |--④-|
□①④□ |⑤-⑥-|
52
④①□④ |①-②-|
①□□□ |③---|
③⑤⑤② |④---|
□③②□ |--⑤-|
53
③□□□ |①-②--③|
□□□① |--④--⑤|
□□□④ |⑥-⑦-|
⑤□□② |⑧---|
□□⑧□
□⑦□⑧
⑥□⑦□
□⑥□□
54
□□□③ |①-②--③|
①□□□ |--④--⑤|
④□□□ |⑥-⑦-|
②□□⑤ |⑧---|
□⑧□□
⑧□⑦□
□⑦□⑥
□□⑥□
55
③□□□ |①-②--③|
□□□① |--④--⑤|
□□□④ |⑥-⑦-|
⑤□□② |⑧---|
□□⑧□
□⑦□⑧
⑥□⑦□
□⑥□□
56
□②□③ |①--②-③|
①④□⑤ |④-⑤--⑥|
①①□□ |⑦-⑧--⑨|
①①①□ |--⑩---|
□□⑨□
□□□□
⑩□⑥⑩
⑦□⑧□
最終更新:2025年11月10日 01:53