アットウィキロゴ
エクスプロウル / 晴いちばん
BPM:164
Notes:793

1
①④④① |①-②-|
□□②□ |③-④-|
⑧⑦⑥⑤ |---⑤⑥⑦|
□③□□ |⑧-⑨-|

□□□⑨
□□□□
□□□□
□□□□
2
□②□□ |①-②-|
①④④① |③-④-|
□□⑥□ |--⑤-|
⑤□③□ |⑥-⑦-|

□□□□
⑦□□□
□□□□
□□□□
3
①④④① |①-②-|
□⑤②□ |③-④-|
□□□□ |--⑤-|
□③□□ |⑥-⑦-|

⑥□□□
□□□□
□□□□
⑦□□⑥
4
□□④□ |①-②-|
①⑥⑥① |③-④-|
□③□⑤ |--⑤-|
□□②□ |⑥---|
5
①□④① |①-②-|
③□⑩□ |③-④-|
⑤③②□ |⑤--⑥⑦⑧|
⑨⑧⑦⑥ |⑨-⑩-|
6
①□□① |①-②-|
③⑧⑦④ |③-④-|
⑤②③□ |⑤-⑥-|
⑦□□⑥ |⑦-⑧-|
7
①④④① |①-②-|
③□□⑥ |③-④-|
⑤③②□ |⑤-⑥-|
⑦⑧⑦□ |⑦-⑧-|
8
①□④① |①-②-|
③③□⑥ |③-④-|
⑤□②□ |⑤-⑥-|
⑦□□⑦ |⑦---|
9
□②②□ |①---|
□□③□ |②---|
□④□□ |③--④|
□①①□ |--⑤-|

□□□□
□□□□
□□□□
□□⑤□
10
①□③③ |①-②-|
□②□□ |③---|
□□□□ |④---|
④④⑤□ |--⑤-|
11
⑥□□② |①--②|
□①④□ |--③-|
□⑤③□ |④--⑤|
□□□□ |--⑥-|
12
□①①□ |①---|
□||□ |----|
□∧∧□ |②---|
□□□□ |--③-|

□②②□
□□□□
□□□□
□③□□
13
④④□② |①---|
①□□□ |②-③-|
□□③□ |--④-|
□□⑤⑤ |--⑤-|
14
□□②□ |--①-|
□①□□ |②---|
③③□□ |③---|
□④④□ |④---|
15
□□①① |①---|
□□□| |②-③-|
□□□∧ |--④-|
□□□□ |⑤---|

③―<②
③□□□
□□□□
□□□□

④□□□
□□□□
□□□⑤
□>―⑤
16
□□□□ |①---|
∨□□□ |----|
|□□□ |②--③|
①①□① |--④-|

□④④□
□③③□
□②②□
②□□□
17
□□□③ |①---|
②⑤④② |②---|
□□□□ |③--④|
③①①⑥ |⑤-⑥-|
18
③⑤③□ |①-②-|
□□□① |③---|
④①②□ |④---|
□④④□ |⑤-⑥-|

□□□□
□□□□
□□⑥□
□□□□
19
□□⑤□ |①--②|
⑥③②⑥ |③-④-|
□□□① |⑤---|
①⑤□④ |⑥---|
20
③②□□ |①-②-|
⑤④∨□ |-③--|
②③|□ |④--⑤|
④⑤①□ |⑥-⑦-|

□□□□
□□□□
□□□⑦
□□⑥□
21
④①①② |①---|
□□③⑤ |②-③-|
②⑥□□ |④-⑤-|
□□⑦□ |⑥-⑦-|
22
□□③□ |①-②-|
④①□□ |③---|
□□④② |④---|
③⑤⑤□ |⑤-⑥-|

□□□□
□□□□
□□□⑥
□□□□
23
□②②□ |①---|
④①①④ |②-③-|
⑤□③⑤ |④--⑤|
⑥>―⑥ |--⑥-|
24
□⑦□□ |--①-|
□③⑥□ |②-③-|
□⑤②□ |④-⑤-|
□①④④ |⑥-⑦-|
25
□>―① |①---|
□□□□ |--②-|
□□□□ |③---|
□①□□ |④---|

□□∨②
③③|□
②□②□
□□□□

□□□□
□>④□
□□④□
□□□□
26
□□□∨ |①--②|
□③①| |--③-|
□②□| |④---|
□①□① |⑤-⑥-|

④④□□
□□□⑥
□□⑤□
□□□④
27
―①□ |①---|
□□□□ |--②-|
□□□□ |③---|
①□□□ |④---|

□□②∨
③③□|
□②□②
□□□□

□□□□
□□>④
□□□④
□□□□
28
□□∨□ |①--②|
③□|① |--③-|
②□|□ |④---|
①□①□ |⑤---|

④④□□
□□□□
□□⑤□
□□④□
29
□□□① |①---|
②⑥□④ |②-③-|
□□⑤□ |④-⑤-|
①④□③ |⑥-⑦-|

□□□⑦
□□□□
□□□□
□□□□
30
②④①④ |①---|
□□③② |②---|
①③④① |③---|
□□②③ |④---|
31
□□①③ |①---|
④□③□ |--②-|
④□□① |③--④|
①②②□ |--⑤-|

□□□□
□>―⑤
□□□□
□>―⑤
32
③□③□ |--①-|
□②②② |②---|
□①①□ |③---|
④□④② |④---|
33
⑥④□③ |①-②-|
□□②□ |③-④-|
□⑤⑦① |⑤---|
□③⑤⑥ |⑥-⑦-|
34
□④□⑤ |①-②-|
□□③□ |③-④-|
□⑥□② |⑤---|
①③⑤⑥ |⑥---|
35
□⑤②□ |①-②-|
⑥□⑧③ |③-④-|
④⑦□□ |⑤-⑥-|
①③⑤⑦ |⑦-⑧-|
36
①□①□ |①---|
|□□□ |②---|
|□□□ |③---|
∧□□□ |④---|

②③□③
□□□|
②□□|
□②□∧

□□□④
□□□□
□□□④
□□④□
37
□□④□ |①-②-|
□□□③ |③-④-|
⑤②□□ |⑤---|
①③⑤① |⑥-⑦-|

□□□⑦
□⑥□□
□□□□
□□□⑥
38
③□④⑧ |①-②-|
⑥□□□ |③-④-|
□⑦□② |⑤-⑥-|
①③⑤⑦ |⑦-⑧-|
39
⑥□③⑥ |①---|
□④□□ |②-③-|
□⑤⑤① |④--⑤|
①②④□ |--⑥-|
40
□①②□ |--①-|
①⑤⑤② |②-③-|
③□□④ |④---|
□③④□ |⑤---|
41
□□④① |①-②-|
③□⑩③ |③-④-|
⑤③②□ |⑤--⑥⑦⑧|
⑨⑧⑦⑥ |⑨-⑩-|
42
①□□① |①-②-|
③⑧⑦④ |③-④-|
⑤②③□ |⑤-⑥-|
⑦□□⑥ |⑦-⑧-|
43
①④④① |①-②-|
③□□⑥ |③-④-|
⑤③②□ |⑤-⑥-|
⑦⑧⑦□ |⑦-⑧-|
44
①□④① |①-②-|
③③□⑥ |③-④-|
⑤□②□ |⑤-⑥-|
⑦□□⑦ |⑦---|
45
□□④□ |①---|
□③|□ |②---|
□□∧② |③-④-|
□①①□ |--⑤-|

□□⑤□
⑤―<□
□□□□
□□□□
46
□□□□ |--①-|
①□□□ |--②-|
□>―① |--③-|
□□□□ |④-⑤-|

□□□□
□∨□□
□|□②
□②□□

□□□□
□□⑤□
□④□□
□③③□
47
□①―< |①---|
□□□□ |②-③-|
□□□□ |--④-|
□□□□ |--⑤-|

□②∨②
□□|□
□□③□
□□□□

□□□□
④―<□
□□④□
□□□□

□□□∨
⑤□□|
□□□|
□□□⑤
48
□□□□ |----|
□□□□ |----|
□③□□ |①---|
②□□① |②-③-|
49
□①―< |①---|
□□□□ |②-③-|
□□□□ |--④-|
□□□□ |--⑤-|

□②□□
□□∨□
□□|②
□□③□

□□□□
□□□□
④―<□
□□④□

□□⑤□
□□|□
⑤□∧□
□□□□
50
□□①□ |--①-|
□①―< |--②-|
□□□□ |--③-|
□□□□ |④-⑤-|

□□□□
□②□□
□>―②
□□□□

□□□□
□□⑤□
□④□③
③□□□
51
□>―① |①---|
□□□□ |②-③-|
□□□□ |--④-|
□□□□ |⑤---|

□②□②
□□□□
③―<□
□□□□

□□□□
□□⑤⑤
④□□|
□□□∧
52
□□□□ |①---|
∨□□① |----|
|□□□ |②--③|
①①□□ |--④-|

□④④□
□③③□
□②②□
②□□□
53
□□□③ |①---|
②⑤④② |②---|
□□□□ |③--④|
③①①⑥ |⑤-⑥-|
54
③⑤③□ |①-②-|
□□□① |③---|
④①②□ |④---|
□④④□ |⑤-⑥-|

□□□□
□□□□
□□⑥□
□□□□
55
□□⑤□ |①--②|
⑥③②⑥ |③-④-|
□□□① |⑤---|
①⑤□④ |⑥---|
56
③②□□ |①-②-|
⑤④∨□ |-③--|
②③|□ |④--⑤|
④⑤①□ |⑥-⑦-|

□□□□
□□□□
□□□⑦
□□⑥□
57
⑤①①③ |①-②-|
□□④⑥ |③-④-|
③⑦②□ |⑤-⑥-|
□□⑧□ |⑦-⑧-|
58
□□③□ |①-②-|
④①□□ |③---|
□□④② |④---|
③⑤⑤□ |⑤-⑥-|

□□□□
□□□□
□□□⑥
□□□□
59
□②②□ |①---|
④①①④ |②-③-|
⑤□③⑤ |④--⑤|
⑥>―⑥ |--⑥-|
60
⑦⑦⑥⑥ |--①-|
□③②□ |②-③-|
⑤⑤④④ |④-⑤-|
□①□② |⑥-⑦-|
61
⑦□□□ |①---|
①③⑥① |②-③④|
□□④② |⑤⑥⑦⑧|
⑤①①⑧ |-⑨⑩⑪|

□⑩⑪□
⑨□□□
□□□□
□□□□
62
□⑩□④ |①-②-|
□⑧⑦① |③④-⑤|
③⑥⑨⑤ |⑥⑦⑧⑨|
⑪②□□ |-⑩⑪-|
63
⑥□⑦③ |①---|
④⑫⑪□ |②③④-|
⑧⑩⑨⑤ |⑤⑥⑦⑧|
□②①① |⑨⑩⑪⑫|
64
④①④① |-①-②|
□□⑥⑤ |-③-④|
⑧⑦□⑧ |-⑤⑥⑦|
②③②③ |⑧---|
65
□□□⑦ |①---|
④⑧□③ |②-③④|
□□⑤□ |⑤⑥⑦⑧|
①⑥①② |⑨-⑩⑪|

⑩⑪□□
□□□□
□□□□
□□⑨□
66
□□⑩⑥ |①-②-|
③⑤⑦③ |③-④-|
②⑧④□ |⑤⑥⑦⑧|
⑨⑪□① |⑨⑩⑪-|
67
①⑥⑦□ |①---|
②③④□ |②③④-|
⑥⑤⑤⑦ |⑤--⑥|
□□□① |--⑦-|
68
□□□□ |①-②-|
□□□□ |③-④-|
□□□□ |⑤---⑥-⑦⑧|
①<□□ |⑨---|

□□□□
□□□□
□□□□
②□>②

□□□□
③<□□
□□□□
□□□③

□□□□
④□>④
□□□□
□□□□

□□□□
□∨∨⑤
□⑤⑤□
□□□□

□⑨⑧⑦
□□□□
□⑥⑥□
□□□□
69
□□□□ |①---|
③□□③ |----|
□③③□ |----|
②①□② |②-③-|
70
□③□④ |--①-|
□□②□ |②-③-|
□⑤□① |④---|
□②④⑤ |⑤---|
71
□⑤②□ |①-②-|
⑥□⑧③ |③-④-|
④⑦□□ |⑤-⑥-|
①③⑤⑦ |⑦-⑧-|
72
①□①□ |①---|
|□□□ |②---|
|□□□ |③---|
∧□□□ |④---|

②□□□
□□□□
②―<□
□②□□

□③□③
□□□|
③□□|
□□□∧

□□□④
□□□□
□>―④
□□④□
73
□□④⑦ |①-②-|
①⑥□③ |③-④-|
⑤②□① |⑤---|
①③⑤⑥ |⑥-⑦-|
74
③□④⑧ |①-②-|
⑥□□□ |③-④-|
□⑦□② |⑤-⑥-|
①③⑤⑦ |⑦-⑧-|
75
⑥□③⑥ |①---|
□④□□ |②-③-|
□⑤⑤① |④--⑤|
①②④□ |--⑥-|
76
□①②□ |--①-|
①⑤⑤② |②-③-|
③□□④ |④---|
□③④□ |⑤---|
77
□□□① |①-②-|
□□□| |③-④-|
□□②| |⑤--⑥⑦⑧|
□□□∧ |⑨-⑩-|

□□④□
③□⑩③
⑤③□□
⑨⑧⑦⑥
78
①①□□ |①-②-|
③⑧⑦④ |③-④-|
⑤②③⑥ |⑤-⑥-|
⑦□□□ |⑦-⑧-|
79
①④④① |①-②-|
③□□⑥ |③-④-|
⑤③②□ |⑤-⑥-|
⑦⑧⑦□ |⑦-⑧-|
80
①□④① |①-②-|
③③□⑥ |③-④-|
⑤□②□ |⑤-⑥-|
⑦□□⑦ |⑦---|
81
□□②① |①---|
□⑤□| |----|
□□④∧ |②-③-|
□③□□ |④-⑤-|
82
①□□□ |①---|
∧□□□ |----|
□□□□ |----|
□□□□ |----|
83
①□□① |①---|
□□□□ |----|
□□□□ |----|
□□□□ |----|
最終更新:2025年11月10日 02:13