ケッペキショウ [2] / すこっぷ feat.GUMI
BPM:190
Notes:908
1
□□□□ |----|
□□□□ |----|
①□□① |----|
□□□□ |①---|
2
①⑤⑩⑥ |①-②③|
②⑤⑩⑦ |④-⑤-|
□③⑧□ |⑥-⑦⑧|
④①⑥⑨ |⑨-⑩-|
3
①④⑨⑤ |①-②-|
②③□⑥ |③-④-|
③□⑦□ |⑤-⑥⑦|
□①⑤⑧ |⑧-⑨-|
4
①⑤⑩⑥ |①-②③|
②⑤□⑦ |④-⑤-|
□③⑧□ |⑥-⑦⑧|
④①⑥⑨ |⑨-⑩-|
5
①⑤□⑥ |①-②③|
②□⑦⑧ |④-⑤-|
⑤③⑨⑦ |⑥-⑦-|
④①⑥⑩ |⑧⑨⑩-|
6
①⑤⑩⑥ |①-②③|
②⑤⑩⑦ |④-⑤-|
□③⑧□ |⑥-⑦⑧|
④①⑥⑨ |⑨-⑩-|
7
①④⑨⑤ |①-②-|
②③□⑥ |③-④-|
③□⑦□ |⑤-⑥⑦|
□①⑤⑧ |⑧-⑨-|
8
①⑤⑩⑥ |①-②③|
②⑤□⑦ |④-⑤-|
□③⑧□ |⑥-⑦⑧|
④①⑥⑨ |⑨-⑩-|
9
①⑤□⑥ |①-②③|
②⑤□□ |④-⑤-|
□③⑦⑥ |⑥---|
④①⑥□ |--⑦-|
10
□□②□ |①-②-|
□⑤①□ |--③-|
□④□□ |④-⑤-|
□③□□ |--⑥-|
⑥――<
□□□□
□□□□
□□□⑥
11
□□□□ |--①-|
①―<② |--②-|
②<□① |--③-|
□□□□ |④-⑤-|
③□□④
③□□□
③⑤③□
□□□□
12
□②□□ |①-②-|
□①⑤□ |--③-|
□□④□ |④-⑤-|
□□③□ |--⑥-|
⑥□□□
□□□□
□□□□
――⑥
13
□□□□ |①-②-|
②□>③ |--③-|
③>―② |--④-|
□①□□ |--⑤-|
□④④□
□□□④
□□□④
□□⑤④
14
□⑤□⑥ |①-②-|
□④②□ |--③-|
□③①□ |④-⑤-|
⑥――< |--⑥-|
15
□□□□ |①-②-|
③<①② |--③-|
②―<③ |--④-|
□□□□ |⑤-⑥-|
□□⑤□
④□□□
④□□□
④⑥④□
16
□□⑤□ |①-②-|
□②④□ |--③-|
□①③□ |④-⑤-|
□□□□ |--⑥-|
――⑥
□□□□
□□□□
⑥□□□
17
①①□□ |--①-|
□>―① |--②-|
②□>② |--③-|
□□□□ |④---|
□□□③
□③④③
□□□③
□□□□
18
①⑤∨∨ |①-②③|
②□|| |④-⑤-|
□③|| |⑥-⑦⑧|
④□①① |⑨-⑩-|
□□⑩⑦
□□⑧□
□□⑥⑨
□□□□
19
②□⑨⑥ |①-②-|
□④⑦□ |③-④-|
③□⑤⑧ |⑤-⑥⑦|
□①①① |⑧-⑨-|
20
①⑤⑩⑥ |①-②③|
②⑤⑩⑦ |④-⑤-|
□③⑧□ |⑥-⑦⑧|
④①⑥⑨ |⑨-⑩-|
21
①⑤□⑥ |①-②③|
②⑤□□ |④-⑤-|
□③⑧⑥ |⑥---|
④①⑥⑦ |⑦-⑧-|
22
□⑥②□ |①-②-|
□⑤①□ |③-④-|
③④□□ |⑤-⑥-|
③⑦□□ |⑦-⑧-|
⑧――<
□□□□
□□□□
□□□⑧
23
□□②□ |--①-|
①―<③ |②-③-|
③<□① |--④-|
□□□□ |⑤-⑥-|
④□□□
④□□□
④⑥□□
④□⑤□
24
□②⑥③ |①-②-|
□①⑤③ |③-④-|
□□④□ |⑤-⑥-|
□⑦□□ |⑦-⑧-|
⑧□□□
□□□□
□□□□
――⑧
25
□□□□ |--①-|
①②>③ |②-③-|
③>―① |④-⑤-|
□□□□ |⑥-⑦-|
⑥⑥□⑤
□□□⑤
□④⑦⑤
□□□⑤
26
□□②□ |①-②-|
③⑥①□ |③-④-|
③⑤□□ |⑤-⑥-|
□④⑦□ |⑦-⑧-|
□□□⑧
□□□□
□□□□
⑧――<
27
□①③□ |①-②-|
④<□② |③-④-|
②―<④ |--⑤-|
□□□□ |⑥-⑦-|
⑤□□⑥
⑤□□□
⑤⑦□□
⑤□□□
28
⑦②□□ |①-②-|
□①⑥③ |③-④-|
□□⑤③ |⑤-⑥-|
□□④□ |⑦-⑧-|
――⑧
□□□□
□□□□
⑧⑧□□
29
□①□□ |--①-|
②>―① |--②-|
①②>② |--③-|
□□□□ |----|
□□□③
□□□③
□□□③
□□③③
30
①②③⑦ |①-②-③-|
④⑤⑥⑧ |④-⑤-⑥-|
⑩―<⑨ |⑦-⑧-⑨-|
□□□□ |⑩---⑪-|
□□□□
□□□□
⑪□□□
□□□⑪
31
□□□□ |①-②-③-|
⑥⑤④□ |④-⑤-⑥-|
□□⑦⑦ |⑦---|
①②③□ |----|
32
□③②① |①-②-③-|
□⑥⑤④ |④-⑤-⑥-|
⑦⑧⑨□ |⑦-⑧-⑨-|
□□□□ |⑩---⑪-|
□□□□
∨□□□
|□□□
⑩□□□
□□□□
□□□□
□□□□
⑪□⑪□
33
①②③④ |①-②-③-|
□□□⑤ |④-⑤-⑥-|
□□□⑥ |⑦---|
□□□⑦ |----|
34
□□□⑦ |①-②-③-|
□□□| |④-⑤-⑥-|
⑥⑤④∧ |⑦---⑧-|
①②③□ |⑨-⑩-⑪-|
□⑧□⑧
⑪⑩⑨□
□□□□
□□□□
35
□□□□ |①-②-③-|
□⑨□③ |④-⑤-⑥-|
⑧⑦⑥② |⑦---|
□⑤④① |⑧-⑨-|
36
①③①③ |①---|
□□□□ |--②-|
□②□② |③---|
④□□④ |--④-|
37
④□④□ |--①-|
□③□□ |②-③-|
②□②□ |④---|
□①□□ |----|
38
□①□③ |①-②-|
⑤⑤②□ |③---|
□①④③ |④---|
④□□□ |⑤-⑥-|
⑥□□∨
□□□|
□□□|
□□□⑥
39
□①②□ |--①-|
□□∨□ |--②-|
□∨|□ |--③-|
□②①□ |④-⑤-|
□□□□
□□⑤□
□④□□
③③③③
40
□①□① |①---|
□□□| |②-③-|
□□□| |--④-|
□□□∧ |--⑤-|
③□③②
|□□□
|□②□
∧□□□
④⑤□□
□□□⑤
□④□□
□□□□
41
□□□□ |--①-|
□②③□ |②-③-|
①□□④ |④---|
□□□□ |----|
42
②□①□ |①---|
□□④④ |②---|
②③①□ |③---|
□□□③ |④-⑤-|
∨□□⑤
|□□□
|□□□
⑤□□□
43
□②①□ |--①-|
□∨□□ |--②-|
□|∨□ |--③-|
□①②□ |④-⑤-|
□□□□
□⑤□□
□□④□
③③③③
44
①□□□ |①---|
□□□□ |②-③-|
①――< |--④-|
□□□□ |--⑤-|
――③
□□②□
②□□③
□□□□
□⑤⑤④
□□□□
□④④□
□□□□
45
□□□□ |--①-|
□②③□ |②-③-|
①□□④ |④---|
□□□□ |----|
46
④□□□ |①-②-|
□③④① |③---|
⑤⑤②□ |④---|
□③□① |⑤-⑥-|
□□□⑥
□□□|
□□□|
⑥□□∧
47
□②①□ |--①-|
□∧|□ |--②-|
□□∧□ |--③-|
□①②□ |④-⑤-|
③③③③
□④□□
□□⑤□
□□□□
48
□□□∨ |①---|
□□□| |②-③-|
□□□| |--④-|
□①□① |--⑤-|
∨□□□
|□②□
|□□□
③□③②
□□□□
□④□□
□□□⑤
④⑤□□
49
□□□□ |--①-|
①□□④ |②-③-|
□②③□ |④---|
□□□□ |----|
50
□□□④ |①-②-|
③④①□ |③---|
□②⑤⑤ |④---|
③□①□ |⑤-⑥-|
⑥□□□
|□□□
|□□□
∧□□⑥
51
□①②□ |--①-|
□|∧□ |--②-|
□∧□□ |--③-|
□②①□ |④-⑤-|
③③③③
□□④□
□⑤□□
□□□□
52
⑤③③⑤ |①---|
□□□□ |--②-|
④□□④ |③---|
①②②① |④-⑤-|
53
□□□□ |--①-|
①□□④ |②-③-|
⑤②③⑤ |④---|
①□□④ |⑤---|
54
①⑤⑩⑥ |①-②③|
②⑤⑩⑦ |④-⑤-|
□③⑧□ |⑥-⑦⑧|
④①⑥⑨ |⑨-⑩-|
55
①④⑨⑤ |①-②-|
②③□⑥ |③-④-|
③□⑦□ |⑤-⑥⑦|
□①⑤⑧ |⑧-⑨-|
56
①⑤⑩⑥ |①-②③|
②⑤□⑦ |④-⑤-|
□③⑧□ |⑥-⑦⑧|
④①⑥⑨ |⑨-⑩-|
57
①⑤□⑥ |①-②③|
②□⑦⑧ |④-⑤-|
⑤③⑨⑦ |⑥-⑦-|
④①⑥⑩ |⑧⑨⑩-|
58
①⑤⑩⑥ |①-②③|
②⑤⑩⑦ |④-⑤-|
□③⑧□ |⑥-⑦⑧|
④①⑥⑨ |⑨-⑩-|
59
①④⑨⑤ |①-②-|
②③□⑥ |③-④-|
③□⑦□ |⑤-⑥⑦|
□①⑤⑧ |⑧-⑨-|
60
①⑤⑩⑥ |①-②③|
②⑤□⑦ |④-⑤-|
□③⑧□ |⑥-⑦⑧|
④①⑥⑨ |⑨-⑩-|
61
①⑤□⑥ |①-②③|
②⑤□□ |④-⑤-|
□③□⑥ |⑥---|
④①⑥□ |----|
62
①□③□ |①-②-|
□□□⑦ |③-④-|
①⑥③④ |⑤-⑥-|
⑤②□□ |⑦-⑧-|
⑧□□∨
□□□|
□□□|
□□□⑧
63
□②④□ |①-②-|
①③∨□ |③-④-|
□∨|□ |⑤-⑥-|
□④②□ |⑦-⑧-|
□□□□
□□⑧□
□⑦⑤□
⑥⑥⑥⑥
64
④①④① |①-②-|
②□□□ |③-④-|
□□⑤③ |⑤-⑥-|
⑥□⑦□ |⑦-⑧-|
□⑧□□
□□□⑧
□□□□
□□□□
65
□□③□ |①-②-|
□⑤□□ |③-④-|
②④⑤□ |⑤---|
□③□① |----|
66
□③□① |①-②-|
⑦□□□ |③-④-|
④③⑥① |⑤-⑥-|
□□②⑤ |⑦-⑧-|
∨□□⑧
|□□□
|□□□
⑧□□□
67
□④②□ |①-②-|
□∨③① |③-④-|
□|∨□ |⑤-⑥-|
□②④□ |⑦-⑧-|
□□□□
□⑧□□
□⑤⑦□
⑥⑥⑥⑥
68
①⑧⑧④ |①-②-|
③□⑤② |③-④-|
①⑥⑥④ |⑤-⑥-|
⑦□□□ |⑦-⑧-|
69
□□□□ |①-②-|
□③④□ |③-④-|
②□□⑤ |⑤---|
□⑤③① |----|
70
⑤②□□ |①-②-|
①⑥③④ |③-④-|
□□□⑦ |⑤-⑥-|
①□③□ |⑦-⑧-|
□□□⑧
□□□|
□□□|
⑧□□∧
71
□④②□ |①-②-|
□∧|□ |③-④-|
①③∧□ |⑤-⑥-|
□②④□ |⑦-⑧-|
⑥⑥⑥⑥
□⑦⑤□
□□⑧□
□□□□
72
⑥□⑦□ |①-②-|
□□⑤③ |③-④-|
②□□□ |⑤-⑥-|
④①④① |⑦-⑧-|
□□□□
□□□□
□□□⑧
□⑧□□
73
□③□① |①-②-|
□④⑤② |③-④-|
□⑤□□ |⑤---|
□□③□ |----|
74
□□②⑤ |①-②-|
④③⑥① |③-④-|
⑦□□□ |⑤-⑥-|
□③□① |⑦-⑧-|
⑧□□□
|□□□
|□□□
∧□□⑧
75
□②④□ |①-②-|
□|∧□ |③-④-|
□∧③① |⑤-⑥-|
□④②□ |⑦-⑧-|
⑥⑥⑥⑥
□⑤⑦□
□⑧□□
□□□□
76
④③③④ |①---|
□□□□ |--②-|
④□□④ |③---|
①②②① |--④-|
77
□□□□ |--①-|
①□□④ |②-③-|
⑤②③⑤ |④---|
①□□④ |⑤---|
78
①⑤⑩⑥ |①-②③|
②⑤⑩⑦ |④-⑤-|
□③⑧□ |⑥-⑦⑧|
④①⑥⑨ |⑨-⑩-|
79
①④⑨⑤ |①-②-|
②③□⑥ |③-④-|
③□⑦□ |⑤-⑥⑦|
□①⑤⑧ |⑧-⑨-|
80
①⑤⑩⑥ |①-②③|
②⑤□⑦ |④-⑤-|
□③⑧□ |⑥-⑦⑧|
④①⑥⑨ |⑨-⑩-|
81
①⑤□⑥ |①-②③|
②□⑦⑧ |④-⑤-|
⑤③⑨⑦ |⑥-⑦-|
④①⑥⑩ |⑧⑨⑩-|
82
①⑤⑩⑥ |①-②③|
②⑤⑩⑦ |④-⑤-|
□③⑧□ |⑥-⑦⑧|
④①⑥⑨ |⑨-⑩-|
83
①④⑨⑤ |①-②-|
②③□⑥ |③-④-|
③□⑦□ |⑤-⑥⑦|
□①⑤⑧ |⑧-⑨-|
84
①⑤⑩⑥ |①-②③|
②⑤□⑦ |④-⑤-|
□③⑧□ |⑥-⑦⑧|
④①⑥⑨ |⑨-⑩-|
85
①⑤⑧⑧ |①-②③|
②⑤⑥⑦ |④-⑤-|
□③⑦⑥ |⑥-⑦-|
④①⑧⑧ |⑧---|
最終更新:2025年11月10日 02:12