アットウィキロゴ
darinGGamers / バンドじゃないもん!MAXX NAKAYOSHI
BPM:160
Notes:608

1
⑥□□⑥ |----|
③④②① |①②-③|
□□□□ |④-⑤-|
□⑤⑤□ |⑥---|
2
□④④□ |--①-|
□□①□ |②-③-|
⑤⑥⑧⑦ |④-⑤⑥|
②□□③ |-⑦⑧-|
3
③□⑦③ |①-②-|
②□④□ |③-④-|
□⑤□⑥ |⑤---|
⑥①□□ |⑥-⑦-|
4
□③□② |①---|
⑥①④⑥ |②-③-|
②□□□ |④-⑤-|
⑥⑤⑤□ |⑥-⑦-|

□□□□
□⑦□□
□□□□
□□□□
5
②□⑤□ |①---|
□□③□ |②-③-|
□④①□ |④---|
□⑤□② |⑤-⑥-|

□□□□
□□□□
□□⑥□
□□□□
6
③⑤⑤□ |①---|
□④④① |②---|
②②⑤□ |③-④-|
□□□⑥ |⑤-⑥-|
7
③□⑦③ |①-②-|
②□④□ |③-④-|
□⑤□⑥ |⑤---|
⑥①□□ |⑥-⑦-|
8
□③□② |①---|
⑥①④⑥ |②-③-|
②□□□ |④-⑤-|
⑥⑤⑤□ |⑥-⑦-|

□□□□
□⑦□□
□□□□
□□□□
9
②□⑤□ |①---|
□□③□ |②-③-|
□④①□ |④---|
□⑤□② |⑤-⑥-|

□□□□
□□□□
□□⑥□
□□□□
10
③⑤⑤□ |①---|
□④④① |②---|
②②⑤□ |③-④-|
□□□⑥ |⑤-⑥-|
11
□□□□ |----|
②□□① |----|
□□□□ |--①-|
□□□□ |②---|
12
④⑥⑤□ |--①②|
⑤□□⑥ |③-④-|
⑥②①⑤ |⑤--⑥|
□⑦③□ |--⑦-|
13
③□③□ |--①-|
④④④□ |②-③-|
□③□② |--④-|
①⑥⑤□ |--⑤⑥|
14
②④④③ |①-②-|
⑤□□⑤ |③-④-|
□⑥①□ |--⑤-|
□□□□ |--⑥⑦|

□□□□
□□□□
□□⑦□
□□□□
15
③⑤④② |①-②-|
④①□⑤ |③-④-|
⑤□□④ |--⑤-|
□④⑤□ |----|
16
□⑧⑦① |①②③④|
⑧□②⑦ |⑤-⑥-|
⑥③□□ |⑦--⑧|
④⑨⑨⑤ |--⑨-|
17
④□□⑤ |--①②|
□②①□ |③-④-|
④□③⑤ |--⑤-|
□⑥□□ |--⑥-|
18
□④□④ |①-②-|
③□□② |③-④-|
□①□□ |--⑤-|
⑤□⑤□ |⑥-⑦-|

⑦□⑦□
□□□□
□⑥□□
□□□□
19
□□□□ |--①-|
④②②⑤ |②-③-|
①□□③ |-④⑤-|
□①③□ |----|
20
□②⑥② |①---|
⑤□□⑥ |②---|
□④□□ |③-④-|
①①③□ |⑤-⑥-|
21
④□□□ |--①-|
③①□□ |--②-|
①□②□ |--③-|
□□□② |④---|
22
□□□⑥ |①---|
□③⑥□ |②---|
②②④□ |③-④-|
□□①⑤ |⑤-⑥-|
23
□□□□ |--①-|
①③□□ |--②-|
③①□② |--③-|
□□②□ |----|
24
②□□① |--①-|
⑦□⑤□ |②-③④|
□④③□ |⑤---|
⑥□□□ |⑥-⑦-|
25
⑤①①□ |--①-|
□□□④ |--②-|
③□□□ |③-④-|
□□□② |⑤-⑥-|

□□⑥⑥
□□□□
□□□□
□□□□
26
□①□□ |----|
□□②□ |①-②-|
□③□□ |③-④-|
⑤□④□ |⑤---|
27
□③①□ |①---|
③□□□ |--②-|
②□□① |----|
□②□□ |③---|
28
□□□③ |--①-|
②□③① |----|
□②□□ |②---|
□□①□ |③---|
29
①①□□ |①---|
□□□□ |--②-|
□□□② |----|
□□②□ |③---|

□③□□
□□□□
③□□□
□□□□
30
□□□□ |①-②-|
□□□□ |----|
□□□□ |----|
②□□① |----|
31
□①③□ |①---|
□□□① |--②-|
③□□□ |----|
□②②□ |③---|
32
□□□□ |--①-|
③□□□ |----|
□①②③ |②---|
□②□① |③---|
33
③①①③ |①---|
□□□□ |--②-|
□□□□ |----|
②□□② |③---|
34
□□□□ |①-②-|
□□□□ |----|
□□□□ |----|
□①②□ |----|
35
□□□□ |①--②|
③□①⑥ |--③-|
②①□⑤ |④--⑤|
①④④④ |--⑥-|
36
③④□□ |①--②|
②□④⑤ |--③-|
①①①④ |④--⑤|
□□□□ |--⑥⑦|

□□□□
□⑦□□
□□⑥□
□□□□
37
□⑤①⑤ |①---|
□□④□ |②-③-|
□□□③ |④-⑤-|
□②□□ |--⑥-|

⑥□⑥□
□□□□
□□□□
□□□□
38
□□□□ |①-②-|
②□□① |③---|
□②①④ |④---|
□②①③ |⑤-⑥-|

□⑥⑥□
□□□⑤
□□□□
□□□□
39
□□□⑤ |--①-|
□④□□ |②-③-|
②⑥⑥② |④-⑤-|
①□③① |--⑥-|
40
②①①③ |----|
□④④□ |①---|
①□□① |②---|
□③②□ |③-④-|
41
□③③□ |--①-|
①④④② |②-③-|
□⑤⑤□ |--④-|
①□□② |--⑤-|
42
②⑤⑥② |--①-|
□③④□ |②-③-|
⑤□□⑥ |④---|
①□□① |⑤-⑥-|
43
②□□② |--①-|
⑥□□⑤ |②-③-|
□④③□ |④---|
①⑥⑤① |⑤-⑥-|
44
②□⑤② |--①-|
⑥④□⑥ |②-③-|
⑥□③⑥ |④-⑤-|
①□□① |--⑥-|
45
④□□③ |--①-|
□②⑤□ |②-③-|
⑥④②⑤ |④-⑤-|
⑥①□□ |⑥-⑦-|

□□□□
□□□□
□□□□
□⑦⑦□
46
⑦⑦⑥⑥ |--①-|
④②④③ |②-③-|
⑦□②⑥ |④-⑤-|
□⑤□① |⑥-⑦-|
47
□□□□ |--①②|
⑤⑧⑧⑥ |③-④-|
□②③□ |⑤-⑥-|
⑦□①④ |⑦-⑧-|
48
□①①□ |----|
④□□④ |①-②-|
①③□① |③---|
⑤□②⑤ |④-⑤-|
49
④⑧⑧⑤ |--①②|
□②③□ |③-④-|
⑥□①⑦ |⑤-⑥-|
□□□□ |⑦-⑧-|
50
②□□② |--①-|
⑤□□⑥ |②-③-|
□③④□ |④---|
①⑥⑤① |⑤-⑥-|
51
②⑤⑥② |--①-|
□④③□ |②-③-|
⑥□□⑤ |④---|
①□□① |⑤-⑥-|
52
②④□② |--①-|
④⑦⑦⑤ |②-③-|
□⑥⑥□ |④-⑤-|
①□③① |⑥-⑦-|
53
□⑦⑦③ |--①-|
②□□④ |②-③-|
⑥④□⑥ |④-⑤-|
⑤□②① |⑥-⑦-|
54
③□□③ |--①-|
①□□□ |②-③-|
□□②□ |--④-|
□④④□ |--⑤-|

□⑤□□
⑤⑤⑤□
□⑤□□
□□□□
55
③⑤③⑤ |--①-|
⑤□⑤□ |②-③-|
③□③□ |--④-|
②④④① |--⑤-|
56
③□③□ |--①-|
④③④③ |②-③-|
⑤①⑤□ |--④-|
⑥□⑥② |⑤-⑥-|
57
③①③① |----|
□□□□ |①---|
③①③① |②-③-|
□④④② |--④-|
58
□④④① |--①-|
②□①□ |②---|
④②□④ |③---|
③□□③ |④---|
59
③□⑦③ |①-②-|
②□④□ |③-④-|
□⑤□⑥ |⑤---|
⑥①□□ |⑥-⑦-|
60
□③□② |①---|
⑥①④⑥ |②-③-|
②□□□ |④-⑤-|
⑥⑤⑤□ |⑥-⑦-|

□□□□
□⑦□□
□□□□
□□□□
61
②□⑤□ |①---|
□□③□ |②-③-|
□④①□ |④---|
□⑤□② |⑤-⑥-|

□□□□
□□□□
□□⑥□
□□□□
62
③⑤⑤□ |①---|
□④④① |②---|
②②⑤□ |③-④-|
□□□⑥ |⑤-⑥-|
63
③□⑦③ |①-②-|
②□④□ |③-④-|
□⑤□⑥ |⑤---|
⑥①□□ |⑥-⑦-|
64
□③□② |①---|
⑥①④⑥ |②-③-|
②□□□ |④-⑤-|
⑥⑤⑤□ |⑥-⑦-|

□□□□
□⑦□□
□□□□
□□□□
65
②□⑤□ |①---|
□□③□ |②-③-|
□④①□ |④---|
□⑤□② |⑤-⑥-|

□□□□
□□□□
□□⑥□
□□□□
66
③⑤⑤□ |①---|
□④④① |②---|
②②⑤□ |③-④-|
□□□⑥ |⑤-⑥-|
67
③⑨⑨③ |①-②-|
②□④□ |③-④-|
⑦⑤□⑧ |⑤-⑥⑦|
⑥①⑤□ |⑧-⑨-|
68
□□□□ |①---|
□①□□ |----|
□□□□ |②---|
②②②② |----|
最終更新:2025年11月10日 02:10