アットウィキロゴ
Help me, ERINNNNNN!! / ビートまりお
BPM:185
Notes:986

1
①②□□ |①---|
□②□□ |----|
□□□□ |②---|
□□□□ |----|
2
□□□□ |①---|
□□③⑥ |②---|
□②③⑤ |③-④-|
①②③④ |⑤-⑥-|
3
②④□① |①---|
③①□□ |②---|
□□□□ |③---|
□□□□ |④---|
4
□□□① |①---|
□□□③ |②---|
□□□□ |③---|
④②□□ |④---|
5
②④□□ |①---|
③①□□ |②---|
□□□□ |③---|
□□□□ |④---|
6
□□□① |①---|
□□□③ |②---|
□□□□ |③---|
④②□□ |④---|
7
②④□① |①---|
③①□③ |②---|
□□□□ |③---|
④②□□ |④---|
8
②④□① |①---|
③①□③ |②---|
□□□□ |③---|
④②□□ |④---|
9
□□□① |①---|
④②④③ |②---|
④②②② |③---|
④②④② |④---|
10
①②③④ |①--②|
□②□④ |--③-|
□□③□ |④---|
□□□④ |----|
11
□□③□ |①---|
②①①② |----|
①□□① |②---|
□②②□ |--③-|
12
①②□① |①-②-|
□⑦③□ |③-④-|
⑤①①⑤ |⑤---|
⑤④⑥⑤ |⑥-⑦-|
13
□②②① |①---|
②⑦④② |②-③-|
□⑤□□ |④-⑤-|
③□□⑥ |⑥-⑦-|
14
②□⑤① |①---|
□④□③ |②---|
①③□□ |③---|
④②□□ |④-⑤-|
15
③①□③ |①---|
□□□□ |----|
□□□□ |②---|
□②②① |--③-|
16
□□④□ |--①-|
⑥①□④ |②-③-|
④□②④ |④---|
③④④⑤ |⑤-⑥-|
17
⑥□□① |①---|
□④⑦□ |②-③-|
□□□③ |④-⑤-|
②□⑤□ |⑥-⑦-|
18
□①①④ |①---|
①□□① |②-③-|
①③□④ |④---|
⑤①⑤② |⑤---|
19
②①①② |①---|
①□□① |----|
□②②□ |②---|
□□□□ |--③-|

□③③□
□□□□
□□□□
□□□□
20
□□□③ |--①-|
④□④⑥ |②-③-|
②④□④ |④---|
④⑤④① |⑤-⑥-|
21
①④③□ |①---|
□⑦□□ |②-③-|
□□□□ |④-⑤-|
⑤□⑥② |⑥-⑦-|
22
②□⑤① |①---|
□④□③ |②---|
①③□□ |③---|
④②□□ |④-⑤-|
23
□①□□ |①---|
□③③□ |----|
②③③② |②---|
□②②① |--③-|
24
④□①④ |--①-|
②□□□ |②-③-|
④⑥□④ |④---|
□□⑤③ |⑤-⑥-|
25
□③④□ |①---|
□①①⑦ |②-③-|
□⑥□□ |④-⑤-|
②□□⑤ |⑥-⑦-|
26
□③④⑤ |①---|
②①①□ |②---|
①□②① |③-④-|
□③④⑤ |⑤---|
27
②④□□ |①---|
③①③① |②---|
□□③① |③---|
□□⑤⑤ |④-⑤-|
28
□⑨⑤① |①-②③|
⑥□□⑥ |④-⑤-|
□②□③ |⑥---|
⑦④⑧□ |⑦⑧⑨⑩|

□□□⑩
□□□□
□□□□
□□□□
29
⑤⑬⑥□ |①②③④|
⑨①②⑩ |⑤⑥⑦⑧|
③□⑭④ |⑨⑩⑪⑫|
⑪⑦⑫⑧ |⑬⑭⑮⑯|

□□□□
□⑮⑯□
□□□□
□□□□
30
②□④① |①---|
□□□③ |②---|
①③□□ |③---|
④②□□ |④-⑤-|

□□□□
□□□□
⑤□□□
□□□□
31
②④□□ |①---|
③①③□ |②---|
□□③① |③---|
□□□① |④-⑤-|

□□□□
□□□□
□□□□
□□⑤⑤
32
□□⑤① |①-②③|
⑥⑨⑩⑥ |④-⑤-|
□②□③ |⑥---|
⑦④□⑧ |⑦⑧⑨⑩|
33
①⑨⑧④ |①②③④|
⑪□□⑩ |⑤⑥⑦⑧|
⑤⑦②⑥ |⑨⑩⑪⑫|
⑬③⑫⑭ |⑬⑭⑮⑯|

⑮□□□
□□□□
□□⑯□
□□□□
34
□③②④ |①---|
④①①□ |②-③-|
⑥□□④ |④---|
⑤□⑤⑤ |⑤-⑥-|
35
②④□□ |①---|
③①①③ |②---|
□□①③ |③---|
□□⑤⑤ |④-⑤-|
36
□⑧□① |①-②③|
⑥②③⑥ |④-⑤-|
□□□⑤ |⑥---|
⑦④□□ |⑦-⑧-|
37
⑤⑬⑧□ |①②③④|
⑨①②⑩ |⑤⑥⑦⑧|
③⑪⑫④ |⑨⑩⑪⑫|
⑮⑦⑥⑭ |⑬⑭⑮⑯|

□□□□
□□⑯□
□□□□
□□□□
38
②□④① |①---|
□□□③ |②---|
①③□□ |③---|
④②□□ |④-⑤-|

□□□□
□□□□
⑤□□□
□□□□
39
②④⑤□ |①---|
③①⑤□ |②---|
□□③① |③---|
□□③① |④-⑤-|
40
⑥⑦⑧① |①-②③|
⑤□□⑥ |④-⑤-|
□②□③ |⑥-⑦-|
⑧④□□ |⑧-⑨-|

□□□⑨
□□□□
□□□□
□□□□
41
⑦⑪⑭⑫ |①②③④|
⑬①②⑧ |⑤⑥⑦⑧|
③⑤⑩④ |⑨⑩⑪⑫|
⑮⑨⑥⑯ |⑬⑭⑮⑯|
42
□③④⑤ |①---|
□①①② |②---|
①②□① |③-④-|
□③④⑤ |⑤---|
43
②④□□ |①---|
③①①③ |②---|
②④□□ |③---|
□□□□ |④---|
44
④□□④ |①-②-|
⑥⑥③□ |③-④-|
□□②□ |--⑤-|
□①⑤⑤ |--⑥-|
45
□②①③ |①---|
□□④□ |②---|
②⑤□① |③-④-|
⑥□□⑥ |⑤-⑥-|
46
□□□□ |----|
□□□□ |----|
□□□□ |----|
□□□□ |----|
47
①③①③ |①---|
□①③□ |②---|
②□□④ |③---|
□⑤⑤□ |④-⑤-|
48
③□□③ |--①-|
□②□④ |②-③-|
⑥□①□ |--④-|
□⑤□□ |⑤-⑥-|
49
②②□□ |①---|
②⑥□③ |②---|
□⑤④① |③-④-|
⑥□①① |⑤-⑥-|
50
⑤③⑤③ |--①-|
②□□② |--②-|
①⑥④① |③-④-|
□□□□ |⑤-⑥-|
51
⑤□⑤□ |①---|
④①③② |②---|
①□□③ |③---|
①⑤□③ |④-⑤-|
52
□③□③ |--①-|
□□④② |②-③-|
①□□□ |--④-|
⑤□③□ |--⑤-|
53
②②③③ |①---|
②④④□ |②---|
⑤⑤①① |③-④-|
□⑥⑥① |⑤-⑥-|
54
⑥□③⑥ |①---|
②④□② |②---|
□⑤⑤□ |③-④-|
①□□① |⑤-⑥-|
55
□③③□ |①---|
□□□□ |----|
①□□① |②---|
②□②□ |③---|
56
②□□③ |①---|
②□④③ |--②-|
□⑤□① |③---|
□①□□ |④-⑤-|
57
□□③□ |①---|
②□□□ |----|
□□□③ |②---|
①②□① |③---|
58
②②□□ |①---|
□①③① |②---|
①③①□ |③---|
□□③□ |----|
59
□□□① |①---|
□□□③ |②---|
□□□□ |③---|
④②□□ |④---|
60
①□①④ |①---|
③①②□ |②-③-|
①□①④ |④---|
⑤□⑤□ |⑤---|
61
②④□□ |①---|
③①□□ |②---|
□□□□ |③---|
□□□□ |④---|
62
④□④□ |①-②-|
⑤③⑤③ |③-④-|
②⑥②⑥ |⑤-⑥-|
⑦①⑦① |⑦---|
63
□□□① |①---|
□□□③ |②---|
□□□□ |③---|
④②□□ |④---|
64
①□③④ |①--②|
①②③④ |--③-|
①□③□ |④---|
□□□④ |----|
65
④□□□ |①---|
③④□□ |②---|
②③④□ |③---|
①②③④ |④---|
66
□①④① |①--②|
□□③④ |--③-|
④□□① |④---|
②④□□ |----|
67
①□□① |①---|
③□□③ |----|
□□□□ |②---|
□②②□ |--③-|
68
□①□□ |--①-|
□⑥②□ |②-③-|
④□□④ |④---|
□③⑤□ |⑤-⑥-|
69
□□□① |①---|
□⑦④□ |②-③-|
□⑤②□ |④-⑤-|
③□□⑥ |⑥-⑦-|
70
②□⑤① |①---|
□④□③ |②---|
①③□□ |③---|
④②□□ |④-⑤-|
71
③①□③ |①---|
□□□□ |----|
□□□□ |②---|
□②②① |--③-|
72
□④④□ |--①-|
⑥①□□ |②-③-|
④□②④ |④---|
③□□⑤ |⑤-⑥-|
73
⑥□□① |①---|
□④⑦□ |②-③-|
□□□③ |④-⑤-|
②□⑤□ |⑥-⑦-|
74
□□□④ |①---|
①□□① |②-③-|
③①①④ |④---|
⑤□⑤② |⑤---|
75
②①①② |①---|
①□□① |----|
□②②□ |②---|
□□□□ |--③-|

□③③□
□□□□
□□□□
□□□□
76
□□□③ |--①-|
④□④⑥ |②-③-|
②④□④ |④---|
④⑤④① |⑤-⑥-|
77
①③④□ |①---|
□⑦□□ |②-③-|
□□□□ |④-⑤-|
⑤□⑥② |⑥-⑦-|
78
②□⑤① |①---|
□④□③ |②---|
①③□□ |③---|
④②□□ |④-⑤-|
79
□①□□ |①---|
□③③□ |----|
②③③② |②---|
□②②① |--③-|
80
④□①④ |--①-|
②□□□ |②-③-|
④⑥□④ |④---|
□□⑤③ |⑤-⑥-|
81
□□□□ |①---|
③①①□ |----|
□□□□ |----|
□□□② |②-③-|
82
□③④⑤ |①---|
□①①② |②---|
①②□① |③-④-|
□③④⑤ |⑤---|
83
②□□□ |①---|
①□□□ |----|
□□□① |②---|
□□□③ |③---|
84
□□□④ |①-②-|
□②□□ |③-④-|
①□③□ |----|
□□□□ |----|
85
⑪⑤⑥⑫ |①②③④|
⑨⑮⑩④ |⑤⑥⑦⑧|
③⑦⑭□ |⑨⑩⑪⑫|
①⑬②⑧ |⑬⑭⑮-|
86
□⑤⑤□ |①-②-|
□□□② |③-④-|
①③□④ |⑤---|
①⑥③□ |⑥---|
87
③⑦⑤① |①-②-|
⑤①⑧③ |③-④-|
□□②□ |⑤-⑥-|
□□④⑥ |⑦-⑧-|
88
□□□① |①-②-|
⑤□□⑤ |③-④-|
□④□② |⑤---|
⑥③③□ |⑥---|
89
⑤⑬⑧⑯ |①②③④|
⑨①④⑫ |⑤⑥⑦⑧|
⑮⑦⑩⑭ |⑨⑩⑪⑫|
⑪③⑥② |⑬⑭⑮⑯|
90
③□⑩⑫ |①②③④|
□①④⑨ |⑤⑥⑦⑧|
⑪⑦⑧□ |⑨--⑩|
⑨⑤⑥② |⑪-⑫-|
91
⑥⑥□□ |①-②③|
①①⑤□ |④-⑤-|
⑧③⑨④ |⑥-⑦⑧|
□□⑦② |⑨-⑩-|

□□□□
□⑩□□
□□□□
□□□□
92
□⑧⑦① |①-②③|
□□⑤① |④-⑤-|
□③⑨④ |⑥⑦⑧⑨|
⑥⑩□② |⑩⑪⑫-|

□□□□
□□□⑪
⑫□□□
□□□□
93
⑥⑥□□ |①-②③|
①①⑤□ |④-⑤-|
⑧③⑨④ |⑥-⑦⑧|
□⑩⑦② |⑨-⑩-|
94
□⑤③④ |①-②-|
①②③□ |③-④-|
⑦②⑧④ |⑤-⑥⑦|
①□⑥□ |⑧-⑨-|

□□□□
□□□□
□□□□
⑨□□□
95
②③□□ |①---|
③①③① |②---|
④③□□ |③---|
□①□① |④-⑤-|

□□□□
□□□□
□□□⑤
□□□⑤
96
□⑤⑥① |①-②③|
⑦②□⑥ |④-⑤-|
□⑧③⑧ |⑥-⑦-|
⑥④⑨□ |⑧-⑨-|
97
①⑮⑫⑥ |①②③④|
⑪⑦②⑩ |⑤⑥⑦⑧|
③⑬⑧⑭ |⑨⑩⑪⑫|
⑨⑤⑯④ |⑬⑭⑮⑯|
98
①□□② |①---|
□□□② |--②-|
①□□□ |----|
□□□② |----|
99
①□□⑩ |①②③-|
②□⑪⑥ |④⑤⑥-|
③⑫□⑤ |⑦⑧⑨-|
⑦⑧⑨④ |⑩⑪⑫-|
100
①②③□ |①②③-|
□⑪□⑥ |④⑤⑥-|
□□⑩⑤ |⑦⑧⑨-|
⑨⑧⑦④ |⑩⑪⑫-|

⑫□□□
□□□□
□□□□
□□□□
101
□□□③ |①②③-|
⑦□②⑥ |④⑤⑥-|
⑧①⑪⑤ |⑦⑧⑨-|
⑨□⑩④ |⑩⑪⑫-|

□□□□
□□⑫□
□□□□
□□□□
102
④①②③ |①②③-|
⑤□⑩□ |④⑤⑥-|
⑥⑪□□ |⑦⑧⑨-|
⑫⑦⑧⑨ |⑩⑪⑫-|
103
④⑤⑥③ |①②③-|
⑩⑦□② |④⑤⑥-|
⑪□⑧① |⑦⑧⑨-|
⑫□□⑨ |⑩⑪⑫-|
104
④□⑦③ |①②③④|
□⑧①□ |⑤⑥⑦⑧|
□②□⑤ |⑨---|
□⑥⑨⑨ |----|
105
①□□□ |①---|
□□□□ |----|
□□□□ |----|
□□□□ |----|
最終更新:2025年11月10日 02:10