メズマライザー / サツキ
BPM:185
Notes:988
1
⑪⑫⑬⑭ |①②③④|
⑤⑨④⑩ |⑤-⑥⑦|
③⑦②⑧ |⑧⑨⑩-|
①□□⑥ |⑪⑫⑬⑭|
2
⑬⑭⑮⑯ |①②③④|
⑨⑩⑪⑫ |⑤⑥⑦⑧|
⑤⑥⑦⑧ |⑨⑩⑪⑫|
①②③④ |⑬⑭⑮⑯|
3
□□□□ |①②-③|
⑤⑥⑥□ |④-⑤-|
⑧⑨③□ |⑥---|
①④⑦② |⑦-⑧⑨|
4
⑦⑥⑤④ |①②-③|
⑧□□⑩ |-④⑤⑥|
□□①② |⑦⑧-⑨|
③⑨⑨③ |--⑩-|
5
⑤⑥⑦□ |①--②|
□③③□ |--③-|
□②②□ |④---|
①④④① |⑤⑥⑦-|
6
□□□③ |①--②|
□□③⑥ |---③|
⑤②②□ |--④-|
①□④① |⑤-⑥-|
7
□□□□ |①②-③|
⑤⑥⑥□ |④-⑤-|
⑧⑨③□ |⑥---|
①④⑦② |⑦-⑧⑨|
8
⑦⑥⑤④ |①②-③|
⑧□□⑩ |-④⑤⑥|
□□①② |⑦⑧-⑨|
③⑨⑨③ |--⑩-|
9
④⑤□④ |①-②-|
⑦②②⑦ |③--④|
①①③③ |--⑤-|
□□⑥□ |⑥--⑦|
10
□□□□ |--①-|
□⑤②⑥ |②--③|
③□④③ |--④-|
□①□□ |⑤-⑥-|
11
①①□□ |①---|
④⑦□⑧ |②-③④|
③⑥□⑤ |-⑤-⑥|
□□□② |⑦-⑧-|
12
④②□□ |--①-|
□□⑤□ |②-③-|
⑥□①□ |④-⑤-|
□□⑦③ |⑥-⑦-|
13
②□④② |--①-|
□□□□ |--②-|
③①①⑤ |--③-|
□□□□ |④-⑤-|
14
□①□□ |①-②-|
□□②□ |③-④-|
□③□□ |⑤---|
□⑤④⑥ |⑥---|
15
□□①① |①---|
⑧□⑦④ |②-③④|
⑤□⑥③ |-⑤-⑥|
②□□□ |⑦-⑧-|
16
□□②④ |--①-|
□⑤□□ |②-③-|
□①□⑥ |④-⑤-|
③⑦□□ |⑥-⑦-|
17
□□□⑥ |--①-|
⑤□③④ |②-③-|
①②□□ |④-⑤-|
□⑦⑦□ |⑥-⑦-|
18
④□□□ |----|
□①①□ |--①-|
□□□③ |--②-|
②□□□ |③-④-|
19
□②①□ |①②③④|
⑥⑩⑨⑤ |⑤⑥⑦⑧|
⑫④③□ |⑨⑩⑪-|
⑧□⑪⑦ |⑫-⑬⑭|
□⑬⑭□
□□□□
□□□□
□□□□
20
□□□① |①-②-|
②□⑦□ |③-④-|
□⑥③□ |--⑤-|
□④⑤□ |⑥-⑦-|
21
①①⑧□ |①-②③|
③⑨⑭② |④⑤⑥⑦|
⑤⑬⑩④ |⑧⑨⑩⑪|
⑦⑪⑫⑥ |⑫⑬⑭⑮|
□⑮□□
□□□□
□□□□
□□□□
22
□□⑦① |①-②-|
③⑥□□ |③-④-|
□□□② |--⑤-|
④□□⑤ |⑥-⑦-|
23
①⑤⑫⑥ |①-②③|
⑪□□④ |④⑤⑥⑦|
⑦③⑩□ |⑧-⑨⑩|
□⑨②⑧ |⑪⑫⑬⑭|
⑬□□□
□□□□
□□□⑭
□□□□
24
□②□□ |①-②-|
□□③⑦ |③-④-|
④④□⑥ |--⑤-|
①□□⑤ |⑥-⑦-|
25
⑫⑫⑦① |①②③④|
⑥②⑨□ |⑤⑥⑦⑧|
□⑧③□ |⑨-⑩-|
④⑪⑤⑩ |⑪-⑫-|
26
□□□① |--①-|
⑤②□⑥ |②-③-|
□□③□ |④-⑤-|
④□□⑦ |⑥-⑦-|
27
□①①□ |①---|
□⑤□□ |--②-|
□□④□ |③-④-|
②③□□ |⑤-⑥-|
□□⑥□
□□□□
□□□□
□□□□
28
□□□① |①---|
③□□④ |②---|
⑤□□⑥ |③-④-|
□□②② |⑤-⑥-|
29
□⑥□□ |①---|
□□⑤□ |--②-|
□④□□ |③-④-|
①□③② |⑤-⑥-|
30
①□□□ |①---|
④□□③ |②---|
⑥□□⑤ |③-④-|
②②□□ |⑤-⑥-|
31
□⑥□□ |①---|
□⑤□□ |--②-|
□□④□ |③-④-|
□②③① |⑤-⑥-|
32
□□①□ |①---|
□⑤④□ |②---|
⑥□□③ |③-④-|
②□□□ |⑤-⑥-|
33
③□□① |①-②-|
⑦□□⑤ |③-④-|
⑧④②⑥ |⑤-⑥-|
□□□□ |⑦-⑧-|
34
□□□□ |①---|
□□④□ |----|
□□□□ |②---|
①③□② |③-④-|
35
①④①④ |①---|
□③⑥□ |②-③-|
④①④① |④---|
□⑤②□ |⑤-⑥-|
36
①③①③ |①---|
□②④② |②---|
③①③① |③---|
②⑤②□ |④-⑤-|
37
⑥□⑥□ |①-②-|
①③□④ |③-④-|
⑤⑥□⑥ |⑤-⑥-|
□⑦⑦② |--⑦-|
38
□③□① |--①-|
②□⑤④ |②-③-|
③□①□ |④---|
②⑥□④ |⑤-⑥-|
39
①④①④ |①---|
□③⑥□ |②-③-|
④①④① |④---|
□⑤②□ |⑤-⑥-|
40
①③①③ |①---|
□②④② |②---|
③①③① |③---|
②⑤②□ |④-⑤-|
41
□⑥③⑥ |①-②-|
⑥②⑥□ |③-④-|
⑦④⑦① |⑤-⑥-|
□⑦⑤⑦ |--⑦-|
42
□□①□ |--①-|
⑤②□⑦ |②-③-|
□□□□ |④-⑤-|
④□③⑥ |⑥-⑦-|
43
①④①④ |①---|
□③⑥□ |②-③-|
④①④① |④---|
□⑤②□ |⑤-⑥-|
44
①③①③ |①---|
□②④② |②---|
③①③① |③---|
②⑤②□ |④-⑤-|
45
⑥□⑥□ |①-②-|
①③□④ |③-④-|
⑤⑥□⑥ |⑤-⑥-|
□⑦⑦② |--⑦-|
46
□③□① |--①-|
②□⑤④ |②-③-|
③□①□ |④---|
②⑥□④ |⑤-⑥-|
47
①④①④ |①---|
□③⑥□ |②-③-|
④①④① |④---|
□⑤②□ |⑤-⑥-|
48
①③①③ |①---|
□②④② |②---|
③①③① |③---|
②⑤②□ |④-⑤-|
49
□⑥③⑥ |①-②-|
⑥②⑥□ |③-④-|
⑦④⑦① |⑤-⑥-|
□⑦⑤⑦ |--⑦-|
50
④□①⑤ |--①-|
□②□□ |②-③-|
□□□③ |④-⑤-|
□⑥⑦□ |⑥-⑦-|
51
⑪⑫⑬⑭ |①②③④|
⑤⑨④⑩ |⑤-⑥⑦|
③⑦②⑧ |⑧⑨⑩-|
①□□⑥ |⑪⑫⑬⑭|
52
⑬⑭⑮⑯ |①②③④|
⑨⑩⑪⑫ |⑤⑥⑦⑧|
⑤⑥⑦⑧ |⑨⑩⑪⑫|
①②③④ |⑬⑭⑮⑯|
53
□□□□ |①---|
□③⑥④ |②-③-|
□□□□ |④---|
①⑤②□ |⑤-⑥-|
54
□□□□ |①---|
①□④□ |②---|
②□□□ |③---|
③⑤□□ |④-⑤-|
55
□⑥⑥□ |①-②-|
①③□④ |③-④-|
⑤⑦⑦□ |⑤-⑥-|
□□□② |--⑦-|
56
□□□□ |--①-|
①□⑤③ |②-③-|
□□□□ |④---|
④⑥□② |⑤-⑥-|
57
□□①① |①---|
□③⑥④ |②-③-|
□□□□ |④---|
□⑤②□ |⑤-⑥-|
58
□□□□ |①---|
①□④□ |②---|
②□□□ |③---|
③⑤□□ |④-⑤-|
59
⑥⑥③□ |①-②-|
□②□□ |③-④-|
□④□① |⑤-⑥-|
□□⑤□ |--⑦-|
□□□□
□□□□
□□⑦⑦
□□□□
60
□□①□ |--①-|
⑤②□⑦ |②-③-|
□□□□ |④-⑤-|
④□③⑥ |⑥-⑦-|
61
①④①④ |①---|
□③⑥□ |②-③-|
④①④① |④---|
□⑤②□ |⑤-⑥-|
62
①③①③ |①---|
□②④② |②---|
③①③① |③---|
②⑤②□ |④-⑤-|
63
⑥□⑥□ |①-②-|
①③□④ |③-④-|
⑤⑥□⑥ |⑤-⑥-|
□⑦⑦② |--⑦-|
64
□③□① |--①-|
②□⑤④ |②-③-|
③□①□ |④---|
②⑥□④ |⑤-⑥-|
65
①④①④ |①---|
□③⑥□ |②-③-|
④①④① |④---|
□⑤②□ |⑤-⑥-|
66
①③①③ |①---|
□②④② |②---|
③①③① |③---|
②⑤②□ |④-⑤-|
67
□⑥③⑥ |①-②-|
⑥②⑥□ |③-④-|
⑦④⑦① |⑤-⑥-|
□⑦⑤⑦ |--⑦-|
68
□□①□ |--①-|
④②⑦⑦ |②-③-|
□□□③ |④-⑤-|
⑤□⑥⑥ |⑥-⑦-|
69
□□□□ |----|
□□□□ |----|
□□□□ |----|
□□□□ |----|
70
②□②□ |----|
□□□□ |----|
□②□② |--①-|
□①①□ |②---|
71
⑥③⑥① |①-②-|
①⑥③⑥ |③-④-|
⑤□②□ |⑤-⑥-|
④⑦⑦⑤ |--⑦-|
72
□③□① |--①-|
②□⑤④ |②-③-|
③□①□ |④---|
②⑥□④ |⑤-⑥-|
73
①⑤①⑤ |①-②-|
□④⑧□ |③-④-|
⑤①⑤① |⑤-⑥-|
②⑦③⑥ |⑦-⑧-|
74
①④①④ |①-②-|
②③⑥③ |③---|
④①④① |④-⑤-|
③⑥③⑤ |⑥-⑦-|
□□□□
□□□□
□⑦□□
□□□□
75
①⑥③⑥ |①-②-|
⑥③⑥② |③-④-|
⑤□④① |⑤-⑥-|
□□□⑤ |--⑦-|
□□□□
□□□□
□⑦□⑦
⑦□⑦□
76
□⑤①⑤ |--①-|
⑦②⑦③ |②-③-|
④□④□ |④-⑤-|
□⑥□⑥ |⑥-⑦-|
77
①⑤①⑤ |①-②-|
□④⑧□ |③-④-|
⑤①⑤① |⑤-⑥-|
②⑦③⑥ |⑦-⑧-|
78
①④①④ |①-②-|
②③⑥③ |③---|
④①④① |④-⑤-|
③⑥③⑤ |⑥-⑦-|
□□□□
□□□□
□⑦□□
□□□□
79
⑥④①□ |①-②-|
①③□⑥ |③-④-|
⑤□□③ |⑤-⑥-|
②⑦⑦⑤ |--⑦-|
80
□③□① |--①-|
②□⑤④ |②-③-|
③□①□ |④---|
②⑥□④ |⑤-⑥-|
81
①④①④ |①--②|
□②⑦③ |--③-|
④①④① |④-⑤-|
②⑥②⑤ |⑥-⑦-|
82
①④①④ |①-②-|
②③⑥③ |③---|
④①④① |④-⑤-|
③⑥③⑤ |⑥-⑦-|
□□□□
□□□□
□⑦□□
□□□□
83
①⑥③⑥ |①-②-|
⑥③⑥② |③-④-|
⑤□④① |⑤-⑥-|
□□□⑤ |--⑦-|
□□□□
□□□□
□⑦□⑦
⑦□⑦□
84
②⑤①⑦ |--①-|
□⑥□④ |②-③-|
□□□□ |④-⑤-|
□④⑥③ |⑥-⑦-|
85
⑪⑫⑬⑭ |①②③④|
⑤⑨④⑩ |⑤-⑥⑦|
③⑦②⑧ |⑧⑨⑩-|
①□□⑥ |⑪⑫⑬⑭|
86
⑬⑭⑮⑯ |①②③④|
⑨⑩⑪⑫ |⑤⑥⑦⑧|
⑤⑥⑦⑧ |⑨⑩⑪⑫|
①②③④ |⑬⑭⑮⑯|
87
□□□□ |①②-③|
⑤⑥⑥□ |④-⑤-|
⑧⑨③□ |⑥---|
①④⑦② |⑦-⑧⑨|
88
⑦⑥⑤④ |①②-③|
⑧□□⑩ |-④⑤⑥|
□□①② |⑦⑧-⑨|
③⑨⑨③ |--⑩-|
89
⑤⑥⑦□ |①--②|
□③③□ |--③-|
□②②□ |④---|
①④④① |⑤⑥⑦-|
90
□□□③ |①--②|
□□③⑥ |---③|
⑤②②□ |--④-|
①□④① |⑤-⑥-|
91
□□□□ |①②-③|
⑤⑥⑥□ |④-⑤-|
⑧⑨③□ |⑥---|
①④⑦② |⑦-⑧⑨|
92
⑦⑥⑤④ |①②-③|
⑧□□⑩ |-④⑤⑥|
□□①② |⑦⑧-⑨|
③⑨⑨③ |--⑩-|
93
④⑤□④ |①-②-|
⑦②②⑦ |③--④|
①①③③ |--⑤-|
□□⑥□ |⑥--⑦|
94
□□□□ |--①-|
□⑤②⑥ |②--③|
③□④③ |--④-|
□①□□ |⑤-⑥-|
95
□□□□ |①---|
□□□□ |----|
□□□□ |----|
①①①① |----|
最終更新:2025年11月10日 02:09