1
③□□⑤ |①---|
①④②① |②-③-|
①③④① |④-⑤-|
⑤□□② |----|
2
①③③① |----|
□□②□ |----|
□②□□ |①--②|
□③③□ |--③-|
3
⑤□□③ |①---|
①②④① |②-③-|
①④③① |④-⑤-|
②□□⑤ |----|
4
□①□② |①---|
□□④□ |②---|
①④②□ |③--④|
③□□③ |--⑤-|
□⑤⑤□
□□□□
□□□□
□⑤⑤□
5
⑤□□② |①---|
①③④① |②-③-|
①④②① |④-⑤-|
③□□⑤ |----|
6
□③③□ |----|
□②□□ |----|
□□②□ |①--②|
①③③① |--③-|
7
②□□⑤ |①---|
①④③① |②-③-|
①②④① |④-⑤-|
⑤□□③ |----|
8
□①③⑤ |①-②-|
□□□□ |③-④-|
□②④⑥ |⑤-⑥-|
⑦⑦⑦⑦ |⑦---|
9
①□②③ |①---|
②□④⑤ |②-③-|
④□□□ |④-⑤-|
⑥□□⑦ |⑥-⑦-|
10
①□③④ |①-②-|
③□⑤⑥ |③-④-|
⑤②□□ |⑤-⑥-|
⑦□□□ |⑦---|
11
①□②③ |①---|
②□④⑤ |②-③-|
④□□□ |④-⑤-|
⑥□□⑦ |⑥-⑦-|
12
①□③④ |①-②-|
③□⑤⑥ |③-④-|
⑤②□□ |⑤-⑥-|
□⑦⑦□ |⑦---|
13
②⑤④③ |①--②|
□①□□ |--③-|
③④②④ |④--⑤|
①□⑤① |--⑥-|
□□□□
□⑥⑥□
□□□□
□□□□
14
②□③□ |①--②|
①□⑥① |--③-|
⑤③②⑤ |④-⑤-|
④①□④ |⑥-⑦-|
□□□□
⑦□□□
□□□□
□□□□
15
③③⑥⑥ |①②③-|
⑪⑤⑧⑪ |④⑤⑥-|
⑩⑦②⑩ |⑦⑧⑨-|
⑨①④⑨ |⑩-⑪-|
16
□□③② |①---|
□③□□ |②---|
□③□□ |③---|
□①③□ |----|
17
⑨□□⑩ |①---|
⑦⑤⑥⑧ |②---|
①③④② |③④⑤⑥|
①□□② |⑦⑧⑨⑩|
18
⑪□⑩⑩ |①---|
□⑨⑧□ |②③④⑤|
⑤⑦⑥④ |⑥⑦⑧⑨|
③①①② |⑩-⑪-|
19
□□□□ |①---|
②⑩⑨① |②---|
⑥⑧⑦⑤ |③④⑤⑥|
④②①③ |⑦⑧⑨⑩|
20
②③④① |①-②③|
⑧□□⑦ |④-⑤⑥|
⑩□□⑨ |⑦⑧⑨⑩|
⑤⑥□⑪ |⑪---|
21
□⑩⑨□ |①---|
⑥⑧⑦⑤ |②---|
④①①③ |③④⑤⑥|
□②②□ |⑦⑧⑨⑩|
22
⑩⑩□⑪ |①---|
⑧□□⑨ |②③④⑤|
⑥④⑤⑦ |⑥⑦⑧⑨|
□②③① |⑩-⑪-|
23
□□□□ |①---|
⑨①②⑩ |②---|
⑦⑤⑥⑧ |③④⑤⑥|
①③④② |⑦⑧⑨⑩|
24
⑤④③② |①②③④|
⑨①□⑨ |⑤-⑥-|
□⑦⑧□ |⑦-⑧-|
⑦□⑥⑧ |⑨---|
25
⑥①①⑤ |①---|
⑧□□⑦ |②---|
②④③② |③④⑤⑥|
□□□□ |⑦⑧⑨⑩|
□⑩⑨□
□□□□
□□□□
□□□□
26
□□□⑪ |①---|
⑧④⑤⑨ |②③④⑤|
□⑥⑦□ |⑥⑦⑧⑨|
②⑩①③ |⑩-⑪-|
27
⑤⑨⑩⑥ |①---|
⑦②②⑧ |②---|
①③④① |③④⑤⑥|
□□□□ |⑦⑧⑨⑩|
28
□⑤⑤④ |①--②|
⑤③②⑤ |--③-|
④□□③ |-④--|
②①①□ |⑤---|
29
⑨□□⑩ |①---|
⑦⑤④⑧ |②③④⑤|
□③②⑥ |⑥---|
①□⑥① |⑦⑧⑨⑩|
30
□⑤④□ |①---|
□③②□ |②③④⑤|
①□□⑥ |⑥---|
⑦①⑥⑦ |⑦---|
31
③⑦⑤① |①-②-|
④⑧⑥② |③-④-|
⑦③①⑤ |⑤-⑥-|
□□□□ |⑦-⑧-|
32
③⑦⑦④ |①-②-|
□□□□ |③-④-|
□⑥⑥□ |⑤-⑥-|
②⑤⑤① |⑦---|
33
③□□□ |①②③-|
①□②⑧ |④⑤⑥⑦|
⑪⑦⑫⑥ |⑧-⑨⑩|
⑨⑤⑩④ |⑪⑫⑬-|
□□□□
⑬□□□
□□□□
□□□□
34
⑩②⑨① |①②③④|
□⑧⑬⑦ |⑤⑥⑦⑧|
□⑥⑬⑤ |⑨⑩⑪⑫|
⑫④⑪③ |⑬---|
35
□⑤□④ |①②③-|
⑬⑦⑭⑥ |④⑤⑥⑦|
⑪③⑫⑧ |⑧-⑨⑩|
⑨①⑩② |⑪⑫⑬⑭|
36
⑨③⑩④ |①②③④|
⑬⑦□⑧ |⑤⑥⑦⑧|
⑬⑤□⑥ |⑨⑩⑪⑫|
⑪①⑫② |⑬---|
37
⑦□□⑥ |①②③-|
⑫⑤□④ |④⑤⑥-|
⑩□⑪③ |⑦-⑧⑨|
⑧②⑨① |⑩⑪⑫-|
38
⑩⑧⑨⑦ |①②③④|
⑫⑥⑪⑤ |⑤⑥⑦⑧|
□②⑬① |⑨⑩⑪⑫|
□④⑬③ |⑬---|
39
⑦⑪⑧⑫ |①②③④|
□□□⑥ |-⑤⑥-|
⑤③□④ |⑦⑧⑨⑩|
⑨①⑩② |⑪⑫⑬⑭|
□□□□
□□□□
□□□□
□⑬□⑭
40
⑤□□⑥ |①-②-|
①①③③ |③-④-|
⑤②④⑥ |⑤-⑥-|
□⑦⑦□ |⑦---|
41
⑤⑦⑥⑧ |①-②-|
③□④② |③④⑤⑥|
□⑨□⑩ |⑦⑧⑨⑩|
□⑪□① |⑪⑫⑬-|
□□□□
□⑬□□
□□□□
□□□⑫
42
□⑧□⑦ |--①②|
⑥⑩⑤⑨ |③④⑤⑥|
②□①⑪ |⑦⑧⑨⑩|
④□③⑪ |⑪---|
43
④⑫⑤⑪ |①②③-|
⑥⑩⑦⑨ |④⑤⑥⑦|
⑧①②⑬ |⑧-⑨⑩|
□③□□ |⑪⑫⑬⑭|
□□□□
□□□□
□⑭□□
□□□□
44
④⑫③⑪ |①②③④|
⑥⑩⑤⑨ |⑤⑥⑦⑧|
⑧□⑦⑬ |⑨⑩⑪⑫|
②□①⑬ |⑬---|
45
③⑬⑧⑧ |①②③-|
⑦⑪⑥⑫ |④⑤⑥⑦|
⑤⑨④⑩ |⑧-⑨⑩|
①①②□ |⑪⑫⑬-|
46
④⑫⑤□ |①-②③|
⑥⑩⑦⑪ |④⑤⑥⑦|
②⑧③⑨ |⑧⑨⑩⑪|
□⑧①① |⑫---|
47
④⑩③⑪ |①②③④|
⑧⑧⑤⑨ |⑤⑥⑦-|
⑫⑫⑬⑦ |⑧⑨⑩⑪|
②⑥①① |⑫⑬⑭⑮|
□□□□
□□□□
□□□□
⑭□⑮□
48
①□④③ |①---|
□④□□ |----|
□④□□ |②-③-|
□②④□ |④---|
49
□□□□ |①---|
□□□□ |----|
□□□□ |----|
①□□① |----|
50
□□□□ |----|
□□□□ |----|
□□□□ |----|
□□□□ |----|
51
□□□□ |----|
□□①② |①-②-|
□□③④ |③-④-|
□⑤□□ |--⑤-|
52
□□□□ |--①-|
①□②③ |②-③-|
□□④⑤ |④-⑤-|
□□□□ |----|
53
□□□□ |----|
□□□□ |----|
□□□□ |----|
□□□□ |----|
54
□□□□ |----|
□□□□ |----|
□□□□ |----|
□□□□ |----|
55
□□□□ |----|
□□①② |①-②-|
□□③④ |③-④-|
□⑤□□ |--⑤-|
56
□□□□ |--①-|
①□②③ |②-③-|
□□④⑤ |④-⑤-|
□□□□ |----|
57
④④②③ |①---|
□□④⑤ |②-③-|
③□□□ |④-⑤-|
⑥①①⑦ |⑥-⑦-|
58
④④②③ |--①-|
⑥②④⑤ |②-③-|
□①□□ |④-⑤-|
□□□□ |⑥---|
59
④④②③ |①---|
□□④⑤ |②-③-|
③□□□ |④-⑤-|
⑥①①⑦ |⑥-⑦-|
60
④④②③ |--①-|
□②④⑤ |②-③-|
□①□□ |④-⑤-|
⑥□□⑥ |⑥---|
61
④⑥⑥⑤ |①--②|
□③③□ |--③-|
④②②⑤ |④-⑤-|
□①①□ |⑥---|
62
□□□□ |①--②|
⑤③③④ |--③-|
⑥②②⑥ |④-⑤-|
⑤①①④ |⑥---|
63
③③⑥⑥ |①②③-|
⑪⑤⑧⑪ |④⑤⑥-|
⑩⑦②⑩ |⑦⑧⑨-|
⑨①④⑨ |⑩-⑪-|
64
②③④⑤ |①②③④|
⑨⑧⑦⑨ |⑤-⑥-|
□□①□ |⑦-⑧-|
⑧⑥□⑦ |⑨---|
65
①②⑫⑪ |①②③④|
⑭⑬□□ |⑤-⑥⑦|
⑥⑦③④ |⑧⑨⑩-|
⑩⑤⑧⑨ |⑪⑫⑬⑭|
66
□□□⑨ |①-②③|
⑩□③② |④⑤⑥-|
⑤④⑧① |⑦-⑧-|
⑦□□⑥ |⑨-⑩-|
67
⑪⑫□□ |①②③④|
□□②① |⑤-⑥⑦|
④③⑦⑥ |⑧⑨⑩-|
⑨⑧⑤⑩ |⑪⑫⑬⑭|
□□□□
□□⑬⑭
□□□□
□□□□
68
⑨□□⑨ |①-②③|
②③□□ |④⑤⑥-|
①⑧④⑤ |⑦-⑧-|
⑥□□⑦ |⑨---|
69
□□⑫⑪ |①②③④|
①②□□ |⑤-⑥⑦|
⑥⑦③④ |⑧⑨⑩-|
⑩⑤⑧⑨ |⑪⑫⑬⑭|
□□□□
⑭⑬□□
□□□□
□□□□
70
□□□⑨ |①-②③|
⑩□③② |④⑤⑥-|
⑤④⑧① |⑦-⑧-|
⑦□⑥□ |⑨-⑩-|
71
⑧□①□ |①-②③|
□⑤③⑦ |-④⑤⑥|
④□⑥□ |⑦-⑧-|
⑩②□⑨ |⑨-⑩-|
72
⑧⑤③⑦ |①-②③|
④□⑥□ |-④⑤⑥|
□②□① |⑦-⑧-|
⑨□□⑨ |⑨---|
73
□□□□ |①-②-|
②③⑤④ |--③-|
□□□□ |--④-|
□①①□ |--⑤-|
74
①②④③ |--①-|
□④□□ |--②-|
□□④□ |--③-|
□④□□ |④---|
75
□⑦⑫⑪ |①②③④|
⑥□⑧□ |⑤-⑥⑦|
①②□⑨ |⑧⑨⑩-|
⑤⑩③④ |⑪⑫⑬⑭|
□□□□
□□□□
⑭⑬□□
□□□□
76
③□□⑦ |①-②③|
⑥②□⑤ |-④⑤-|
□□④□ |⑥-⑦-|
⑧□①⑧ |⑧---|
77
①②⑫⑪ |①②③④|
⑭⑬□□ |⑤-⑥⑦|
⑥⑦③④ |⑧⑨⑩-|
⑩⑤⑧⑨ |⑪⑫⑬⑭|
78
□□□⑨ |①-②③|
⑩□③② |④⑤⑥-|
⑤④⑧① |⑦-⑧-|
⑦□□⑥ |⑨-⑩-|
79
□①①□ |①-②③|
⑨□⑩⑦ |-④⑤-|
⑤⑧⑥③ |⑥⑦-⑧|
□④②□ |⑨-⑩-|
80
⑤④③② |①②③④|
□⑨⑨□ |⑤-⑥-|
□⑧⑧□ |⑦-⑧-|
①⑦⑦⑥ |⑨-⑩-|
□□□⑩
□□□□
□□□□
□□□□
81
⑨□□⑩ |①---|
⑦⑤⑥⑧ |②---|
①③④② |③④⑤⑥|
①□□② |⑦⑧⑨⑩|
82
⑪□⑩⑩ |①---|
□⑨⑧□ |②③④⑤|
⑤⑦⑥④ |⑥⑦⑧⑨|
③①①② |⑩-⑪-|
83
□□□□ |①---|
②⑩⑨① |②---|
⑥⑧⑦⑤ |③④⑤⑥|
④②①③ |⑦⑧⑨⑩|
84
②③④① |①-②③|
⑧□□⑦ |④-⑤⑥|
⑩□□⑨ |⑦⑧⑨⑩|
⑤⑥□⑪ |⑪---|
85
⑦①⑧② |①②③-|
⑪④⑫⑤ |④⑤⑥-|
⑨③⑩□ |⑦⑧⑨⑩|
⑬⑥⑭□ |⑪⑫⑬⑭|
86
⑧②⑦① |--①②|
⑩⑥⑨⑤ |③④⑤⑥|
□□⑪□ |⑦⑧⑨⑩|
□④⑪③ |⑪---|
87
□③⑥④ |①②③④|
⑧⑫⑦⑪ |-⑤⑥-|
⑩①⑨② |⑦⑧⑨⑩|
□⑤□□ |⑪⑫⑬⑭|
□□□□
□□□□
□⑭□⑬
□□□□
88
②③④⑤ |①②③④|
⑦⑨⑨⑧ |⑤-⑥-|
□□□□ |⑦-⑧-|
⑥⑦⑧① |⑨---|
89
□□□□ |①---|
□□□□ |----|
①①①① |----|
□□□□ |----|
最終更新:2026年03月30日 20:58