アットウィキロゴ
1
⑤①⑨③ |①-②-|
□⑧⑦□ |③-④-|
□⑥□□ |⑤-⑥⑦|
□②④□ |-⑧⑨-|

2
③□⑦③ |①--②|
□□⑥⑦ |--③-|
②⑤□② |--④⑤|
①□④① |⑥-⑦-|

3
⑤□⑧□ |①-②-|
③□⑥⑧ |③-④-|
①□□④ |⑤-⑥-|
⑦①□② |⑦-⑧-|

4
□□□□ |--①-|
□∨□□ |--②-|
①+<□ |--③-|
□①□□ |--④-|

②□□□
□□∨□
②>+③
□②③□

□④□□
④□□□
□□□④
□□④□

5
②⑧①□ |①-②-|
□⑥⑦① |③-④⑤|
⑩④⑤⑨ |⑥⑦⑧-|
□⑩□③ |⑨-⑩-|

6
□□①□ |--①-|
□>+① |--②-|
□□∧□ |--③-|
□□□□ |④-⑤-|

□③②□
③+<②
□∧□□
□□□②

□⑤□□
⑤□□□
□④④□
□□□□

7
①□□① |①---|
□□⑥⑥ |②-③-|
□⑤④④ |④-⑤-|
③⑦②② |⑥-⑦-|

8
①①□② |①-②-|
③③□□ |③-④-|
⑤⑤④□ |⑤---|
□□□□ |----|

9
⑧①①⑧ |①-②③|
□□⑨⑩ |④⑤⑥⑦|
⑦⑥③② |-⑧-⑨|
⑪⑤④□ |⑩-⑪-|

10
④①①④ |①---|
□□□□ |②-③-|
③□□② |--④-|
□③②□ |--⑤-|

□□□□
□□□∨
□□□|
□□□⑤

11
□⑤□□ |①-②-|
①②③④ |③-④-|
□□⑦□ |⑤-⑥⑦|
⑧⑥⑧④ |--⑧-|

12
①□③□ |--①-|
□⑤□□ |②-③-|
□②□④ |④-⑤-|
□□⑥□ |⑥---|

13
□⑦②□ |①-②-|
⑤□□④ |③-④-|
③□□⑥ |⑤-⑥-|
□①⑧□ |⑦-⑧-|

14
③□①① |①-②-|
□□□∨ |--③-|
□□□| |④--⑤|
②②□④ |----|

□□□□
□⑤⑤□
□□□□
□□□⑤

15
□②□③ |①-②-|
□⑥⑨⑤ |③-④-|
□⑧⑦⑤ |⑤-⑥⑦|
④□①□ |--⑧⑨|

16
□①⑧④ |①-②-|
③⑤□⑧ |③-④-|
□⑦⑥□ |⑤-⑥-|
□□②□ |⑦-⑧-|

17
⑦□□② |--①-|
⑤□②□ |②-③-|
③□⑥④ |④-⑤-|
①□④⑥ |⑥-⑦-|

18
□□④□ |①②-③|
⑥③②⑨ |④-⑤-|
⑦①□⑩ |⑥⑦⑧-|
⑧□⑤⑪ |⑨⑩⑪-|

19
①①②② |①-②-|
③□□④ |--③-|
□□□⑤ |④---|
□③④□ |--⑤-|

20
⑦□□□ |①-②-|
③①□⑥ |③-④-|
①⑤④□ |⑤-⑥-|
⑤③□② |⑦-⑧-|

□□□□
□□∨□
□>+⑧
□□⑧□

21
□□□① |--①-|
□∨□□ |--②-|
②+<① |--③-|
□②①□ |--④-|

③□□□
□□□□
③□□④
□③□□

22
⑦□□□ |①-②-|
①③□⑥ |③-④-|
⑤①④□ |⑤-⑥-|
③⑤□② |⑦-⑧-|

□□□□
□□∨□
□>+⑧
□□⑧□

23
□②□① |--①-|
②+<□ |--②-|
□∧□① |--③-|
□□①□ |--④-|

④③□④
③□□□
□□□□
③□□□

24
⑧⑥⑤⑧ |--①-|
⑥④③□ |②③-④|
□②⑦□ |⑤-⑥-|
□①①⑦ |⑦-⑧-|

25
⑩⑧⑦⑩ |-①②③|
⑧⑥⑤① |④⑤-⑥|
□④⑨② |⑦-⑧-|
□□③⑨ |⑨-⑩-|

26
□⑥③□ |--①-|
⑥④①③ |②-③-|
②□□⑤ |--④-|
□②⑤□ |⑤-⑥-|

27
④□②⑤ |--①-|
□③③② |②---|
④①□⑤ |③-④-|
①③③□ |⑤-⑥-|

□□□□
□□□□
□□□□
⑥□□□

28
⑥□□⑦ |①-②-|
②□⑤③ |③-④-|
□④①⑤ |⑤-⑥-|
□□③① |⑦-⑧-|

□□□□
□∨□□
⑧+<□
□⑧□□

29
□□①□ |--①-|
□□|□ |--②-|
①□∧□ |--③-|
□①□□ |--④-|

□□②□
□□∨□
□□|□
□□②□

□③□□
□|□□
□∧□□
□□③□

□④□□
□□□□
④□□□
□□□□

30
□□□□ |①-②-|
⑦②③① |③-④⑤|
□⑦①□ |⑥-⑦-|
④⑤⑥③ |⑧-⑨-|

□□□⑧
□□□□
□□⑧□
□□□□

⑨□⑨□
|□|□
∧□∧□
□□□□

31
①□①□ |----|
□∨□∨ |①-②-|
□|□| |----|
□②□② |③-④-|

□④□④
□□□□
□□□□
□③□③

32
□□⑥⑥ |①---|
③□④④ |②-③-|
⑤□②② |④-⑤-|
①⑦①□ |⑥-⑦-|

33
①①⑥□ |①-②-|
③③□□ |③-④-|
⑤⑤□④ |⑤---|
□□②□ |--⑥-|

34
□□□□ |①-②-|
⑦①□⑦ |③-④-|
□⑥⑥② |⑤-⑥-|
③⑤⑤④ |⑦---|

35
②①①② |①---|
□④④□ |②-③-|
□③③□ |--④-|
⑤□□⑤ |⑤---|

36
□□①□ |①---|
―+① |--②-|
□③|□ |③-④-|
□②∧□ |⑤-⑥-|

□⑥⑤□
④□□⑤
⑤□□□
□□□□

37
②□□④ |①---|
□①①□ |②-③-|
⑤□□③ |--④-|
□⑤③□ |⑤---|

38
□①□□ |①---|
①+―< |--②-|
□|③□ |③-④-|
□∧②□ |⑤-⑥-|

□⑤⑥□
⑤□□④
□□□⑤
□□□□

39
□⑤□② |①---|
⑤①①□ |②-③-|
③□□□ |--④-|
□③□④ |⑤---|

40
□□∨□ |①---|
□□|□ |--②-|
―+① |③-④-|
□②①□ |⑤-⑥-|

□⑥□□
④□□□
⑤③□⑤
□□⑤□

41
□⑤③□ |①---|
⑤①①③ |②-③-|
□□□□ |--④-|
②□□④ |⑤---|

42
□∨□□ |①---|
□|□□ |--②-|
①+―< |③-④-|
□①②□ |⑤-⑥-|

□□⑥□
□□□④
⑤□③⑤
□⑤□□

43
②□□② |①---|
④①①④ |②-③-|
□③③□ |--④-|
④□□④ |----|

44
□□□□ |①---|
□□④□ |②---|
□□③② |③---|
□□①□ |④---|

45
□□□□ |①---|
□①□□ |②---|
③②□□ |③---|
□④□□ |④---|

46
□□□□ |①---|
④□□② |②---|
□③①□ |③---|
□□□□ |④---|

47
□□□□ |①---|
□□□□ |----|
□□□□ |----|
①□□① |----|

48
□□□□ |①---|
①□□① |--②-|
□③□□ |③---|
□②④□ |--④-|

49
□□□□ |①---|
③□□□ |--②-|
②□①④ |③---|
□□□□ |--④-|

50
□②④□ |①---|
③□□① |②---|
□□□□ |③---|
□□□□ |④---|

51
□□□□ |①---|
□①①□ |②---|
②□□② |③---|
④③③□ |--④-|

52
④④①① |①--②|
⑥②□□ |③-④-|
⑥⑧③□ |--⑤-|
□□⑦⑤ |⑥-⑦⑧|

53
④④⑥⑥ |①--②|
□②①□ |③-④-|
⑦□③□ |--⑤-|
⑤□□□ |⑥-⑦-|

54
④④□□ |①--②|
□②①① |③-④-|
□⑦③□ |--⑤-|
⑤□□⑥ |⑥-⑦-|

55
□②①□ |①-②-|
②□□① |③-④-|
④□□③ |----|
⑤④③⑤ |⑤---|

56
②□□③ |①---|
□①①□ |②-③-|
④⑤□□ |--④-|
□□□□ |⑤-⑥-|

□□□□
□□⑥□
□□□□
□□□□

57
□□③□ |--①-|
□②□□ |②-③-|
□⑥⑤④ |--④-|
□□①□ |⑤-⑥-|

58
□□□□ |①---|
①③⑤□ |②-③-|
□□□□ |--④-|
□④②□ |⑤---|

59
□③□□ |①---|
□③③□ |②---|
②③③① |③---|
②□□① |----|

60
□□□□ |----|
□□□□ |----|
□□□① |----|
□□□□ |--①-|

61
⑦□□□ |①-②-|
③①□⑥ |③-④-|
□□④□ |⑤-⑥-|
⑤□□② |⑦-⑧-|

□□□□
□□∨□
□>+⑧
□□⑧□

62
□□①□ |--①-|
□□□□ |----|
□□□① |----|
□□①□ |--②-|

□□□□
□□□□
□□□②
□□□□

63
⑦□□□ |①-②-|
①③□⑥ |③-④-|
□□④□ |⑤-⑥-|
□⑤□② |⑦-⑧-|

□□□□
□□∨□
□>+⑧
□□⑧□

64
②□①□ |--①-|
□□□□ |----|
②□□① |----|
□□①□ |---②|

65
□⑧⑦□ |-①②③|
□⑥□① |④-⑤⑥|
□④⑤② |⑦-⑧-|
⑨□③□ |⑨--⑩|

□□□⑩
□□□□
□□□⑩
□□□□

66
□⑦⑧□ |-①②③|
①□⑥□ |④-⑤⑥|
②⑤④□ |⑦-⑧-|
□③□⑨ |⑨-⑩-|

□□□□
⑩□□□
□□□□
□□□□

67
④④⑦⑦ |①-②-|
□①⑤□ |③-④-|
□⑥②③ |--⑤-|
□□□□ |⑥-⑦-|

68
□④④□ |--①-|
③□□③ |②---|
□□②□ |③---|
□①□□ |--④-|

69
③□□③ |--①-|
□②②□ |②---|
③□□③ |③---|
①□□① |----|

70
□①①□ |①---|
□||□ |----|
□∧∧□ |----|
□□□□ |②-③-|

□②②□
□□□□
□□□③
□□□□

71
⑦□□□ |①-②-|
③①□⑥ |③-④-|
①⑤④□ |⑤-⑥-|
⑤③□② |⑦-⑧-|

□□□□
□□∨□
□>+⑧
□□⑧□

72
□□□① |--①-|
□∨□□ |--②-|
②+<① |--③-|
□②①□ |--④-|

③□□□
□□□□
③□□④
□③□□

73
⑦□□□ |①-②-|
①③□⑥ |③-④-|
⑤①④□ |⑤-⑥-|
③⑤□② |⑦-⑧-|

□□□□
□□∨□
□>+⑧
□□⑧□

74
□②□① |--①-|
②+<□ |--②-|
□∧□① |--③-|
□□①□ |--④-|

④③□④
③□□□
□□□□
③□□□

75
⑧⑥⑤⑧ |--①-|
⑥④③□ |②③-④|
□②⑦□ |⑤-⑥-|
□①①⑦ |⑦-⑧-|

76
⑩⑧⑦⑩ |-①②③|
⑧⑥⑤① |④⑤-⑥|
□④⑨② |⑦-⑧-|
□□③⑨ |⑨-⑩-|

77
□⑥③□ |--①-|
⑥④①③ |②-③-|
②□□⑤ |--④-|
□②⑤□ |⑤-⑥-|

78
④□②⑤ |--①-|
□③③② |②---|
④①□⑤ |③-④-|
①③③□ |⑤-⑥-|

□□□□
□□□□
□□□□
⑥□□□

79
⑥□□⑦ |①-②-|
②□⑤③ |③-④-|
□④①⑤ |⑤-⑥-|
□□③① |⑦-⑧-|

□□□□
□∨□□
⑧+<□
□⑧□□

80
□□①□ |--①-|
□□|□ |--②-|
①□∧□ |--③-|
□①□□ |--④-|

□□②□
□□∨□
□□|□
□□②□

□③□□
□|□□
□∧□□
□□③□

□④□□
□□□□
④□□□
□□□□

81
□□□□ |①-②-|
⑦②③① |③-④⑤|
□⑦①□ |⑥-⑦-|
④⑤⑥③ |⑧-⑨-|

□□□⑧
□□□□
□□⑧□
□□□□

⑨□⑨□
|□|□
∧□∧□
□□□□

82
①□①□ |----|
□∨□∨ |①-②-|
□|□| |----|
□②□② |③-④-|

□④□④
□□□□
□□□□
□③□③

83
□□⑥⑥ |①---|
③□④④ |②-③-|
⑤□②② |④-⑤-|
①⑦①□ |⑥-⑦-|

84
①①⑥□ |①-②-|
③③□□ |③-④-|
⑤⑤□④ |⑤---|
□□②□ |--⑥-|

85
□□□□ |①-②-|
⑦①□⑦ |③-④-|
□⑥⑥② |⑤-⑥-|
③⑤⑤④ |⑦---|

86
②①①② |①---|
□④④□ |②-③-|
□③③□ |--④-|
⑤□□⑤ |⑤---|

87
□□①□ |①---|
―+① |--②-|
□③|□ |③-④-|
□②∧□ |⑤-⑥-|

□⑥⑤□
④□□⑤
⑤□□□
□□□□

88
②□□④ |①---|
□①①□ |②-③-|
⑤□□③ |--④-|
□⑤③□ |⑤---|

89
□①□□ |①---|
①+―< |--②-|
□|③□ |③-④-|
□∧②□ |⑤-⑥-|

□⑤⑥□
⑤□□④
□□□⑤
□□□□

90
□⑤□② |①---|
⑤①①□ |②-③-|
③□□□ |--④-|
□③□④ |⑤---|

91
□□∨□ |①---|
□□|□ |--②-|
―+① |③-④-|
□②①□ |⑤-⑥-|

□⑥□□
④□□□
⑤③□⑤
□□⑤□

92
□⑤③□ |①---|
⑤①①③ |②-③-|
□□□□ |--④-|
②□□④ |⑤---|

93
∨□□□ |①②--|
|□□□ |--③④|
①□□□ |⑤-⑥-|
□①―< |⑦-⑧-|

□□⑧□
□□□⑥
②④⑤⑦
□②③□

94
②□□② |①---|
④①①④ |②-③-|
□③③□ |--④-|
⑤□□⑤ |⑤---|

95
①①①① |①---|
|∧∧| |----|
∧□□∧ |----|
□□□□ |----|

96
□□□□ |----|
□□□□ |----|
□□□□ |----|
□□□□ |----|

97
①①①① |①---|
□□□□ |----|
□□□□ |----|
□□□□ |----|
最終更新:2026年03月30日 20:59