1
⑯⑮⑭⑬ |①②③④|
⑨⑩⑪⑫ |⑤⑥⑦⑧|
⑧⑦⑥⑤ |⑨⑩⑪⑫|
①②③④ |⑬⑭⑮⑯|
2
⑥□□⑦ |--①-|
④③④□ |②-③-|
④④④② |④-⑤-|
①④□⑤ |⑥-⑦-|
3
⑨①①□ |①-②③|
⑦⑫□③ |-④⑤⑥|
⑦⑪⑤⑧ |⑦-⑧⑨|
②④⑩⑥ |-⑩⑪⑫|
4
□②②① |①-②-|
④□□① |③-④⑤|
⑥□⑤⑨ |⑥⑦⑧⑨|
③⑦⑧③ |-⑩⑪⑫|
□□□⑩
□⑫⑪□
□□□□
□□□□
5
①③④□ |①-②③|
□□□⑦ |-④⑤⑥|
□⑤⑨⑦ |⑦-⑧⑨|
⑥⑧□② |-⑩⑪⑫|
□□□□
□□□□
⑩□□□
□□⑪⑫
6
①①②② |①-②-|
③③④④ |③-④-|
□⑤⑤□ |⑤---|
□⑧⑦⑥ |⑥⑦⑧-|
7
⑦□①① |①-②③|
⑦⑤⑥□ |-④⑤⑥|
④⑨□③ |⑦-⑧⑨|
②□⑧□ |-⑩⑪⑫|
□□□⑩
□□□□
□□⑪□
□⑫□□
8
□②②⑨ |①-②-|
④□⑧① |③-④⑤|
⑥⑦□① |⑥⑦⑧⑨|
③□⑤③ |-⑩⑪⑫|
□□□□
□⑫□□
□□⑪⑩
□□□□
9
①□②⑦ |①-②③|
⑥□□⑦ |-④⑤⑥|
□⑤□□ |⑦-⑧⑨|
⑧③④⑨ |-⑩⑪⑫|
□⑪⑫□
□□□□
⑩□□□
□□□□
10
④□□④ |①--②|
⑦⑧□⑥ |--③-|
⑤③③① |④-⑤-|
□②②□ |⑥-⑦⑧|
11
□②□③ |①-②-|
□□①⑧ |--③-|
④□□□ |④-⑤⑥|
□⑦⑥⑤ |⑦-⑧-|
12
④②□□ |--①-|
①②③□ |②-③-|
□②□⑤ |--④-|
⑥⑦□□ |⑤-⑥⑦|
13
□⑦⑥⑤ |①-②-|
②□□③ |--③-|
④□□□ |④-⑤⑥|
□□①⑧ |⑦-⑧-|
14
□□□□ |--①-|
□⑤②□ |②-③-|
□①②③ |--④-|
④□②⑥ |⑤-⑥-|
15
⑥①①④ |①---|
□□③□ |②-③-|
□⑦⑦⑤ |④-⑤-|
□②□□ |⑥-⑦-|
16
□□①□ |--①-|
④②□④ |②-③-|
□⑤⑤□ |--④-|
③□□③ |--⑤-|
17
①②③□ |--①②|
□□□⑥ |③-④-|
④□□□ |⑤---|
□⑦⑦⑤ |⑥-⑦-|
18
①□□③ |--①-|
⑥④②⑥ |②-③-|
④①③② |④---|
□⑤⑤□ |⑤-⑥-|
19
③④⑤□ |--①-|
⑨□②⑨ |②-③④|
□□□□ |⑤-⑥⑦|
①⑧⑦⑥ |⑧-⑨-|
20
□⑤④③ |--①-|
⑨□□⑨ |②-③④|
②□□① |⑤-⑥⑦|
⑥⑦⑧□ |⑧-⑨-|
21
①⑧□□ |--①-|
□④⑤□ |②③④⑤|
②⑨⑨③ |⑥⑦⑧-|
⑥⑩⑩⑦ |⑨-⑩-|
22
①⑥④② |--①-|
⑥④⑥④ |②-③-|
⑥⑤⑦④ |④-⑤-|
③□□□ |⑥-⑦-|
23
□□③□ |--①-|
□⑤□⑥ |②-③-|
□⑦⑦□ |④-⑤-|
④②□① |⑥-⑦-|
24
①□□① |--①-|
□□□□ |--②-|
②④□② |----|
□□③□ |③-④-|
25
□□□□ |①---|
③⑥①⑤ |②-③-|
□□④□ |④-⑤-|
□②⑦□ |⑥-⑦-|
26
①④④① |①---|
④□□④ |②---|
□③③□ |③---|
②□□② |④---|
27
③□□④ |①-②-③-|
⑧②⑤□ |④-⑤-⑥-|
①⑥□□ |⑦---|
⑦□□⑨ |⑧---⑨-|
28
③④⑤⑥ |①-②-③-|
□□□② |④-⑤-⑥-|
□□①□ |⑦-⑧-⑨-|
□□□□ |⑩-⑪-⑫-|
□□□□
⑨⑨⑫⑫
⑧⑧⑪⑪
⑦⑦⑩⑩
29
①②③④ |①-②-③-|
⑦□□□ |④-⑤-⑥-|
⑨⑥□⑧ |⑦---|
⑤□□□ |⑧---⑨-|
30
⑧□□⑦ |①-②-③-|
⑨□⑥③ |④-⑤-⑥-|
□⑤②□ |⑦---|
④□□① |⑧-⑨-|
30
⑤④□□ |①---|
□□□□ |--②-|
①□□□ |③---|
□□②③ |④-⑤-|
31
□□⑤□ |--①-|
□③②□ |--②-|
□①□□ |--③-|
□□④□ |④-⑤-|
32
□□□□ |①---|
□□□□ |----|
□①①□ |----|
□□□□ |----|
33
□□□□ |①---|
①□□① |----|
□□□□ |----|
①□□① |----|
34
⑥②⑦① |①②③④|
□□③□ |⑤⑥⑦⑧|
⑧□□□ |⑨⑩⑪⑫|
□④□⑤ |⑬⑭⑮-|
□□□⑮
⑭⑩□⑪
□□⑨⑮
⑫□⑬□
35
②①⑤□ |--①-|
⑥③③□ |②-③-|
②①⑦□ |--④-|
④□④② |⑤⑥⑦-|
36
②①□① |①---|
□⑧□④ |②-③-|
③□□⑦ |④-⑤-|
□⑥□⑤ |⑥⑦⑧-|
37
□□①① |--①-|
□□□③ |--②-|
②②④□ |--③-|
□□□⑤ |④-⑤-|
38
□⑥⑥□ |--①-|
②□□④ |②-③-|
⑦⑤□⑦ |④-⑤-|
□①③□ |⑥-⑦-|
39
□□□① |--①-|
②①□② |--②-|
③□①□ |----|
①②②□ |--③-|
40
□④□② |①-②-|
⑥①⑧⑤ |③-④-|
□⑦③□ |⑤-⑥-|
□□□□ |⑦-⑧-|
41
□⑤□□ |--①-|
⑤④⑤⑥ |--②③|
□⑤□③ |④---|
①②⑥① |⑤-⑥-|
42
①□④□ |--①-|
⑤□□□ |②-③-|
□□②④ |④-⑤-|
③⑦□⑥ |⑥-⑦-|
43
②□□③ |①--②|
□④②① |--③④|
①②□⑤ |⑤---|
⑥□①□ |--⑥-|
44
□②⑦⑦ |①---|
①□□① |②-③-|
④⑥③□ |④-⑤-|
□□□⑤ |⑥-⑦-|
45
①①□□ |--①-|
⑤⑤②⑤ |--②-|
④□④④ |③--④|
③③③□ |--⑤-|
46
④①①① |①---|
□⑥③⑦ |②-③-|
⑥②⑦□ |④-⑤-|
□□□⑤ |⑥-⑦-|
47
□□□② |--①-|
□□③□ |--②-|
□□□□ |③---|
①④①□ |--④-|
48
□④□□ |①-②-|
③□□② |③-④-|
□□①□ |⑤-⑥-|
□□□□ |⑦-⑧-|
□□□□
□□⑤□
□⑧⑧⑥
⑦□⑦□
49
④□□□ |①---|
□①③① |--②③|
②□□□ |④---|
□□□□ |--⑤⑥|
□□□□
□⑥□□
□□□⑤
□□□□
50
□□□① |①---|
□□□□ |----|
□□□□ |----|
□□□□ |----|
51
⑥□□⑦ |--①-|
④③④□ |②-③-|
④④④② |④-⑤-|
①④□⑤ |⑥-⑦-|
52
□①①□ |----|
□□□□ |--①-|
□□□② |--②-|
□④③□ |③-④-|
53
□□□□ |①---|
□⑤④⑦ |②-③-|
①③②□ |④-⑤-|
□□□⑥ |⑥-⑦-|
54
□□□□ |--①-|
□③④□ |--②-|
□⑤①□ |--③-|
□②□□ |④-⑤-|
55
□④⑤□ |--①-|
□□□□ |②---|
□□□③ |③---|
□②①□ |④-⑤-|
56
□□□□ |--①-|
□①□□ |--②-|
②□□□ |----|
③□□□ |--③-|
57
□□□□ |①-②-|
□③④⑤ |③-④-|
□⑦⑥□ |⑤-⑥-|
⑧①②□ |⑦-⑧-|
58
③□③□ |--①-|
②②□□ |--②-|
①□□□ |--③-|
□□□□ |----|
59
□□□□ |①---|
□⑥⑥□ |--②-|
□⑤④□ |③-④-|
□②③① |⑤-⑥-|
60
□□□□ |----|
□□□□ |----|
□□□□ |----|
□□①□ |①---|
61
①□□① |①---|
□①①□ |----|
①□□① |----|
□□□□ |----|
62
□□⑩□ |①②③④|
⑪⑧⑦⑨ |⑤⑥⑦⑧|
④⑥⑤③ |⑨-⑩-|
②⑪⑫① |⑪-⑫-|
63
②①□① |①---|
□⑧□④ |②-③-|
③□□⑦ |④-⑤-|
□⑥□⑤ |⑥⑦⑧-|
64
□□①① |--①-|
□□□③ |--②-|
②②④□ |--③-|
□□□⑤ |④-⑤-|
65
□⑥⑥□ |--①-|
②□□④ |②-③-|
⑦⑤□⑦ |④-⑤-|
□①③□ |⑥-⑦-|
66
□□□① |--①-|
②①□② |--②-|
③□①□ |----|
①②②□ |--③-|
67
□④□② |①-②-|
⑥①⑧⑤ |③-④-|
□⑦③□ |⑤-⑥-|
□□□□ |⑦-⑧-|
68
□④②④ |--①-|
④□④⑤ |--②-|
□□□□ |③---|
①③⑤① |④-⑤-|
69
①□④□ |--①-|
⑤□□□ |②-③-|
□□②④ |④-⑤-|
③⑦□⑥ |⑥-⑦-|
70
②□□③ |①--②|
□④②① |--③④|
①②□⑤ |⑤---|
⑥□①□ |--⑥-|
71
□②⑦⑦ |①---|
①□□① |②-③-|
④⑥③□ |④-⑤-|
□□□⑤ |⑥-⑦-|
72
①①□□ |--①-|
⑤⑤②⑤ |--②-|
④□④④ |③--④|
③③③□ |--⑤-|
73
④①①① |①---|
□⑥③⑦ |②-③-|
⑥②⑦□ |④-⑤-|
□□□⑤ |⑥-⑦-|
74
□□□② |--①-|
□□③□ |--②-|
□□□□ |③---|
①④①□ |--④-|
75
□④□□ |①-②-|
③□□② |③-④-|
□□①□ |⑤-⑥-|
□□□□ |⑦-⑧-|
□□□□
□□⑤□
□⑧⑧⑥
⑦□⑦□
76
④□□□ |①---|
□①③① |--②③|
②□□□ |④---|
□□□□ |--⑤⑥|
□□□□
□⑥□□
□□□⑤
□□□□
77
□□□① |①---|
□□□□ |----|
□□□□ |----|
□□□□ |----|
78
①⑦②④ |--①-|
③①④□ |②-③-|
⑤⑦⑥② |④-⑤-|
③⑤□⑥ |⑥-⑦-|
79
②□②□ |①---|
□□□① |②-③-|
□□□③ |④-⑤-|
□□①□ |⑥-⑦-|
□□□④
⑥⑤□□
④□⑥□
□⑦⑦□
80
□①②□ |--①-|
□③④⑤ |--②-|
③④⑤□ |--③-|
②□□① |④-⑤-|
81
□⑦⑥② |--①-|
②④□□ |②-③-|
□⑥⑦③ |④-⑤-|
⑤①④□ |⑥-⑦-|
82
②□□① |--①-|
□②①□ |--②-|
①□□② |----|
③①②□ |--③-|
83
□③□□ |①-②-|
□□②③ |③-④-|
③①□□ |⑤-⑥-|
□□□④ |⑦-⑧-|
□□⑦□
⑦⑥□□
□⑧⑤⑦
□□□□
84
②□□③ |①---|
□③①② |②---|
②⑤③□ |③---|
③□④② |④-⑤-|
85
□□□□ |①---|
□□①□ |----|
□□□□ |----|
□□□□ |②-③-|
②②□□
③□③□
③③③□
□③□□
86
□□□④ |①---|
□②□③ |--②-|
④□□① |③---|
③□②① |④---|
87
①④①□ |①--②|
④②②□ |--③-|
⑤③□③ |④---|
□□□⑥ |⑤-⑥-|
88
④④④④ |①--②|
□③□③ |--③-|
□②②□ |④---|
①□①□ |----|
89
⑪□□⑥ |①-②③|
⑨⑩⑤④ |④⑤⑥-|
⑦⑧③② |⑦⑧⑨⑩|
□①①□ |⑪---|
90
⑨①①□ |①-②③|
⑦⑫□③ |-④⑤⑥|
⑦⑪⑤⑧ |⑦-⑧⑨|
②④⑩⑥ |-⑩⑪⑫|
91
□②②① |①-②-|
④□□① |③-④⑤|
⑥□⑤⑨ |⑥⑦⑧⑨|
③⑦⑧③ |-⑩⑪⑫|
□□□⑩
□⑫⑪□
□□□□
□□□□
92
①③④□ |①-②③|
□□□⑦ |-④⑤⑥|
□⑤⑨⑦ |⑦-⑧⑨|
⑥⑧□② |-⑩⑪⑫|
□□□□
□□□□
⑩□□□
□□⑪⑫
93
①①②② |①-②-|
③③④④ |③-④-|
□⑤⑤□ |⑤---|
□⑧⑦⑥ |⑥⑦⑧-|
94
⑥①②⑨ |①②③④|
⑥③④□ |⑤---|
⑤⑧⑩□ |⑥-⑦⑧|
⑤⑪⑦□ |-⑨⑩⑪|
95
□②②⑨ |①-②-|
④□⑧① |③-④⑤|
⑥⑦□① |⑥⑦⑧⑨|
③□⑤③ |-⑩⑪⑫|
□□□□
□⑫□□
□□⑪⑩
□□□□
96
①□②⑦ |①-②③|
⑥□□⑦ |-④⑤⑥|
□⑤□□ |⑦-⑧⑨|
⑧③④⑨ |-⑩⑪⑫|
□⑪⑫□
□□□□
⑩□□□
□□□□
97
④⑧⑦④ |①--②|
□⑥⑤⑨ |--③-|
□③③① |④-⑤⑥|
□②②□ |⑦⑧⑨-|
98
⑯⑮⑭⑬ |①②③④|
⑨⑩⑪⑫ |⑤⑥⑦⑧|
⑧⑦⑥⑤ |⑨⑩⑪⑫|
①②③④ |⑬⑭⑮⑯|
99
③□□③ |①-②-|
□③③□ |----|
□□□□ |----|
②□①② |③---|
最終更新:2026年03月30日 20:59