1
⑨□②⑥ |(127)①-②③④⑤|
①③⑧① |⑥-⑦⑧-⑨|
①□④① |⑩-⑪--⑫|
⑦⑤⑩⑩ |--⑬--⑭|
□⑬⑭⑭
□⑫□⑬
⑪⑪□⑫
□□□□
2
①□□□ |---①--|
①□①□ |------|
□□①□ |------|
①①□□ |------|
3
□⑩⑨① |①-②③-④|
□⑧⑪⑬ |⑤-⑥⑦-⑧|
⑫④③⑦ |⑨-⑩⑪-⑫|
⑥②⑤□ |⑬-⑭---|
⑭□□⑭
□□□□
□□□□
□□□□
4
□⑦⑦□ |①--②--|
⑧⑤⑤⑨ |③--④--|
⑥①①③ |⑤--⑥-⑦|
□□④② |--⑧⑨--|
5
□⑦⑦□ |①--②--|
⑨⑤⑤⑧ |③--④--|
③①□⑥ |⑤--⑥-⑦|
②④□□ |--⑧⑨--|
6
□⑦⑦□ |①--②--|
⑧⑤⑤⑨ |③--④--|
⑥⑩①③ |⑤--⑥-⑦|
□□④② |--⑧⑨-⑩|
7
□⑤⑤① |①--②--|
□②②□ |③--④--|
⑥□③③ |⑤--⑥-⑦|
□④④□ |--⑧⑨--|
□□□□
⑧⑦⑦⑨
□□□□
□□□□
8
②⑤⑤④ |①--②--|
□□□□ |③--④--|
③①①③ |⑤--⑥-⑦|
①③③① |--⑧⑨--|
□□□□
⑧⑦⑦⑨
□□□□
⑥□□□
9
②⑤⑤② |①-②---|
⑧⑦⑦⑨ |③--④--|
③②②④ |⑤--⑥-⑦|
③⑥④① |--⑧⑨--|
10
②⑤⑤④ |①--②--|
□□□□ |③--④--|
③①①③ |⑤--⑥-⑦|
①③③① |--⑧⑨--|
□□□□
⑨⑦⑦⑧
□□□□
□□□⑥
11
②⑤⑤② |①-②---|
⑨⑦⑦⑧ |③--④--|
④②②③ |⑤--⑥-⑦|
①④⑥③ |--⑧⑨--|
12
⑥③□④ |①-②--③|
□□□□ |④--⑤--|
②⑤⑤□ |⑥--⑦-⑧|
①□□① |---⑨--|
□□□⑨
□⑧□□
□□□□
⑦□□⑦
13
④□③□ |①-②--③|
□□□② |④--⑤--|
①□⑥① |⑥--⑦-⑧|
□⑤⑤□ |---⑨--|
□□□⑨
□⑧□□
⑦□□⑦
□□□□
14
□□②□ |①--②--|
⑤④□⑤ |③-④--⑤|
□□③□ |---⑥--|
①□□① |---⑦--|
□□⑦⑦
□□□□
□□□□
⑥⑥□⑥
15
⑩⑧⑦⑨ |①-②③-④|
④⑥⑤③ |---⑤-⑥|
②□□① |⑦-⑧--⑨|
□⑨⑩□ |--⑩---|
16
⑨□④⑥ |①-②--③|
⑤③⑧⑥ |④--⑤--|
②②□□ |⑥--⑦-⑧|
⑤⑦⑩① |⑨--⑩--|
17
⑥□④□ |①-②--③|
⑥③□⑤ |④--⑤--|
□□②② |⑥--⑦-⑧|
①□□⑤ |---⑨--|
□□□□
□□⑨□
□□⑧⑧
⑦⑦□□
18
⑪④⑤⑥ |①②③④⑤⑥|
⑪③⑫⑦ |⑦⑧⑨⑩--|
①②⑫⑧ |⑪----⑫|
⑬⑬⑩⑨ |---⑬--|
19
④③③④ |①----②|
②⑦⑥□ |---③--|
②⑨⑧□ |---④--|
⑤⑤①① |⑤-⑥⑦⑧⑨|
20
□□⑥⑤ |①--②--|
④⑦⑦③ |③-④⑤--|
②⑩⑨② |⑥--⑦-⑧|
□⑧⑪① |⑨-⑩⑪--|
21
□□⑥⑤ |①--②--|
④⑦⑦③ |③-④⑤--|
②⑩⑨② |⑥--⑦-⑧|
□⑧⑪① |⑨-⑩⑪--|
22
□□⑥⑤ |①--②--|
④⑦⑦③ |③-④⑤--|
②⑩⑨② |⑥--⑦-⑧|
□⑧⑪① |⑨-⑩⑪--|
23
⑩⑧⑦⑤ |①--②--|
④⑪⑨③ |③-④⑤-⑥|
②⑥⑫② |⑦-⑧⑨⑩⑪|
□⑬⑭① |⑫-⑬⑭--|
24
④⑦⑩⑩ |①--②--|
③⑧⑥□ |③--④⑤⑥|
②⑨□⑤ |⑦--⑧--|
①⑪□① |⑨-⑩⑪--|
25
④⑤⑦□ |①--②--|
③⑥⑤⑤ |③--④--|
②⑧①① |⑤--⑥-⑦|
①□□④ |⑧-⑨⑩--|
□□□□
□□□□
□□□⑨
□⑩□□
26
④⑤□⑦ |①--②--|
③⑥⑤⑤ |③--④--|
②⑦③□ |⑤--⑥--|
①⑧①① |⑦--⑧--|
27
①③①③ |(124)①-----|
③②④③ |(120)②-----|
①④②① |(112)③-----|
②④④② |(86)④--(82)---|
28
⑦⑦⑦⑦ |(92)①--②-③|
①⑥④① |④-⑤⑥--|
□③□② |⑦--⑧--|
①□⑤①
□□□□
□□□□
⑧⑧⑧⑧
□□□□
29
□⑥④□ |①--②-③|
⑦⑦⑦⑦ |④-⑤⑥--|
□□⑤□ |⑦--⑧--|
①③□②
□□□□
□□□□
□□□□
⑧⑧⑧⑧
30
⑦⑦⑦⑦ |①--②-③|
□⑥④□ |④-⑤⑥--|
①③□② |⑦--⑧--|
□□⑤□
□□□□
□□□□
⑧⑧⑧⑧
□□□□
31
□④⑤□ |①--②-③|
①□③① |--④⑤--|
□□□□ |⑥--⑦--|
⑥②□□
□□□□
□□□⑦
□□⑦□
□□□□
32
③①□② |①--②--|
①⑥⑥④ |③--④--|
□③□□ |⑤--⑥-⑦|
⑤⑦④□
33
②②③③ |①--②--|
⑤⑥⑦⑧ |③--(88)④--|
②□①③ |(84)⑤⑥⑦(72)⑧--|
□④④□
34
①□□① |(127)--①---|
⑤②④⑦ |②--③--|
②①①③ |④--⑤--|
⑥⑤③④ |⑥-⑦--⑧|
⑧□□⑧
□□□□
□□□□
□□□□
35
□①①□ |--①---|
⑤⑨②⑥ |②③④⑤⑥⑦|
①③⑩① |⑧⑨⑩⑪⑫⑬|
⑪⑦④⑧ |⑭-⑮---|
⑮⑮⑭⑭
□□□□
⑬□□⑫
□□□□
36
□□□□ |①-----|
④□□③ |②-----|
□□□□ |③-----|
□②①□ |④-----|
37
①□□② |①-②--③|
⑤□□⑤ |--④--⑤|
④①②④ |---⑥--|
③⑥⑥③ |⑦--⑧--|
⑦□□⑧
□⑦⑧□
□□□□
□□□□
38
④②②□ |①--②--|
②□⑤② |③--④--|
①④□① |⑤--⑥-⑦|
□□③⑤ |--⑧⑨--|
□□⑧⑧
⑦□□⑦
⑥□□⑥
⑨□□□
39
①①□□ |①--②--|
□⑤③⑤ |③--④--|
③⑥①□ |⑤--⑥--|
⑤②④③ |⑦--⑧--|
⑦□□⑦
□□⑧□
□□⑦□
□□□□
40
⑤②②④ |①--②-③|
①②□② |---④--|
③③□① |⑤--⑥-⑦|
③③①□ |---⑧--|
□⑦⑦□
⑦□⑦□
□□⑥⑥
⑧□⑥⑥
41
⑤⑨⑩④ |①②③④⑤⑥|
⑪□□② |⑦⑧⑨⑩⑪⑫|
③⑦⑥⑫ |⑬--⑭-⑮|
⑬①□⑧ |---⑯--|
⑯□□⑯
□⑮⑮□
□□□□
□⑭⑭□
42
□②②⑤ |①--②--|
②□⑤② |③--④--|
④①①□ |⑤--⑥--|
⑥④□③ |⑦--⑧--|
⑦□□□
□□□□
□⑦□□
□□□⑧
43
③①②③ |①-----|
①□□② |②-----|
②③③① |③-----|
□②①④ |④--⑤--|
□⑤□□
□□□⑤
□□□□
□□□□
44
⑤⑥□⑤ |①--②--|
□⑥①□ |③--④--|
①④③④ |⑤--⑥-⑦|
③②②□ |---⑧--|
□□⑦□
□□⑦□
⑧□⑧□
□□□□
45
□□□□ |①--②--|
②□□④ |③--④--|
□③⑤□ |⑤--⑥--|
②①①④ |⑦--⑧--|
⑧□□⑦
□⑧⑦□
□□□□
□⑥⑥□
46
□②②④ |①--②--|
②⑤□② |③--④--|
①□④① |⑤--⑥-⑦|
⑤③□□ |--⑧⑨--|
⑧⑧□□
⑦□□⑦
⑥□□⑥
□□□⑨
47
□□①① |①--②--|
⑤③⑤□ |③--④--|
□①⑥③ |⑤--⑥--|
③④②⑤ |⑦--⑧--|
⑦□□⑦
□⑧□□
□⑦□□
□□□□
48
④②②⑤ |①--②-③|
②□②① |---④--|
①□③③ |⑤--⑥-⑦|
□①③③ |---⑧--|
□⑦⑦□
□⑦□⑦
⑥⑥□□
⑥⑥□⑧
49
④⑩⑨⑤ |①②③④⑤⑥|
②□□⑪ |⑦⑧⑨⑩⑪⑫|
⑫⑥⑦③ |⑬--⑭-⑮|
⑧□①⑬ |---⑯--|
⑯□□⑯
□⑮⑮□
□□□□
□⑭⑭□
50
⑤②②□ |①--②--|
②⑤□② |③--④--|
□①①④ |⑤--⑥--|
③□④⑥ |⑦--⑧--|
□□□⑦
□□□□
□□⑦□
⑧□□□
51
③②①③ |①-----|
②□□① |②-----|
①③③② |③-----|
④①②□ |④--⑤--|
□□⑤□
⑤□□□
□□□□
□□□□
52
⑤□⑥⑤ |①--②--|
□①⑥□ |③--④--|
④③④① |⑤--⑥-⑦|
□②②③ |---⑧--|
□⑦□□
⑧⑦□⑧
□□□□
□□□□
53
②⑥⑦③ |①--②--|
⑤⑥⑦⑤ |③--④--|
④③①② |⑤--⑥-⑦|
□①④□ |---⑧--|
□□□□
□□□□
□⑧□□
□□□⑧
54
②□⑤① |①--②--|
□④□□ |③--④--|
①⑤②③ |⑤--⑥-⑦|
③□④□ |---⑧--|
⑦□□⑥
⑦□□⑥
⑧□⑧□
□□□□
55
□⑧⑦⑥ |①--②③④|
□⑨①⑤ |⑤⑥⑦⑧⑨⑩|
⑪⑩□④ |⑪----⑫|
①□②③ |---⑬--|
⑬□□□
⑬□⑬□
□□⑬□
⑬⑬⑫□
56
□□□① |------|
□□□② |①②③④--|
□□□③ |------|
□□□④ |------|
最終更新:2026年03月30日 21:00