アットウィキロゴ
1
□□□□ |----|
□□□□ |----|
□□□□ |----|
□□□□

□□□□ |----|
□□□□ |----|
□□□□ |----|
□□□□

2
□□□□ |----|
□□□□ |----|
□□□□ |----|
□□□□

□□□□ |----|
□□□□ |----|
□□□□ |----|
□□□□

3
□□□□ |----|
□□□□ |----|
□□□□ |----|
□□□□

□□□□ |----|
□□□□ |----|
□□□□ |----|
□□□□

4
□□□□ |----|
□□□□ |----|
□□□□ |----|
□□□□

□□□□ |----|
□□□□ |----|
□□□□ |----|
□□□□

5
□□□□ |----|
□□□□ |----|
□□□□ |----|
□□□□

□□□□ |----|
□□□□ |----|
□□□□ |----|
□□□□

6
①□□① |①---|
②④□□ |②-③-|
□①①□ |④-⑤-|
□□③⑤

□⑥⑥□ |⑥---|
□□⑨⑦ |⑦-⑧-|
□□□□ |⑨---|
□⑧□□

7
□□□□ |①-②③|
②⑥□□ |④-⑤-|
③□⑦⑤ |⑥-⑦-|
④□①①

□⑩□□ |--⑧-|
□□⑨□ |⑨-⑩-|
□⑧□□ |--⑪-|
□⑪⑪□

8
①⑤②① |①---|
□③④□ |②-③-|
□□□□ |④-⑤-|
□□□□

□□□□ |⑥⑦⑧-|
□□□⑥ |⑨-⑩-|
□⑪⑩⑦ |--⑪-|
□⑨□⑧

9
□①①□ |①---|
②□□□ |②③④-|
③□□⑤ |⑤-⑥-|
④⑥□□

⑧□□□ |⑦---|
□□⑦□ |----|
□⑧□□ |⑧---|
□□□□

10
□□□① |①---|
④⑤□□ |②-③-|
③□①□ |④-⑤-|
②□□□

□⑥□□ |⑥---|
□□□□ |----|
□□□⑦ |⑦---|
□□⑦□

11
□□□① |①---|
□□①□ |----|
□□□□ |----|
□□□□

□□□□ |②---|
□□□□ |----|
□□□□ |----|
②□□②

12
□□□③ |①---|
②□□□ |②---|
□①①□ |③---|
□□□□

□□⑦□ |④---|
□④④⑤ |--⑤-|
□⑥□□ |⑥-⑦-|
□□□□

13
□□□□ |①---|
□□□□ |----|
②□□② |②---|
□①①□

□③③□ |③---|
□□□□ |----|
□□□□ |----|
□□□□

14
③□□② |①---|
□□□□ |②---|
□□□□ |③---|
□①①□

□□□□ |④---|
□④④□ |----|
□□□□ |⑤---|
⑤□□⑤

15
□①①□ |①---|
□□□② |--②-|
③□□□ |③-④-|
□□④□

□□□□ |⑤---|
□□□□ |----|
□⑤⑤□ |----|
□□□□

16
□□③□ |①---|
□②□□ |②---|
①□□① |③---|
□□□□

□□□⑦ |④---|
④□⑤④ |--⑤-|
⑥□□□ |⑥-⑦-|
□□□□

17
□□□□ |①---|
□□□□ |----|
□②②□ |②---|
①□□①

③□□③ |③---|
□□④□ |----|
□⑤□□ |④-⑤-|
□□□□

18
□□□□ |①---|
□□□□ |----|
□□□□ |----|
①□□①

③□□□ |②---|
□□□□ |③---|
□□□④ |④---|
□②②□

19
□①①□ |①---|
①□□① |----|
□□□□ |----|
□□□□

□□□□ |②---|
□□□□ |----|
②□□② |----|
□②②□

20
□□□□ |----|
□□□□ |----|
□□□□ |----|
□□□□

□□□□ |----|
□□□□ |----|
□□□□ |----|
□□□□

21
①①□□ |①-②-|
④④□③ |③-④-|
□□②□ |----|
□□□□

□□□□ |⑤-⑥-|
□□⑦⑨ |⑦-⑧-|
⑤⑤□⑥ |--⑨-|
⑧⑧□□

22
①①□□ |①---|
②②□□ |--②-|
□□□② |----|
□□①□

□□□□ |③---|
□□□③ |--④-|
③③④□ |----|
④④□□

23
①①□① |①---|
②②□□ |--②-|
□□□□ |----|
□□□□

□□③□ |③---|
□□□④ |④-⑤-|
③③⑥□ |⑥---|
⑤⑤□□

24
①①□□ |①---|
②②□④ |--②-|
□□□③ |③-④-|
□□□①

□□□⑤ |⑤---|
□□□□ |--⑥-|
⑤⑤□□ |----|
⑥⑥□□

25
□①①□ |①---|
□□④□ |②-③-|
□③□□ |④---|
□□②□

⑦□□⑥ |⑤---|
□□□□ |⑥---|
□□□□ |⑦---|
⑤□□⑤

26
□□③□ |①---|
①②□① |②---|
①□□① |③---|
□□□□

⑥□□⑤ |④---|
□□□□ |⑤---|
□④④□ |⑥---|
□④④□

27
□□□□ |①---|
□□②□ |②-③-|
□③□□ |④---|
①□④①

□□□⑦ |⑤---|
□⑥□□ |⑥---|
⑤□□⑤ |⑦---|
□□□□

28
□□□□ |①---|
①□②① |--②-|
□③□□ |③---|
□□□□

④□□④ |④---|
□□□□ |----|
□□□□ |--⑤-|
□□⑤□

29
□□□④ |①-②-|
□□□③ |③-④-|
□⑤①② |--⑤-|
□□□□

⑦⑥⑥□ |⑥---|
□□□□ |⑦---|
□□□⑧ |⑧---|
□□□□

30
□□□□ |①---|
□□□③ |--②-|
②①①□ |③---|
①□□①

④□⑤④ |④---|
⑥④④□ |----|
□□□□ |⑤-⑥-|
□□□□

31
□□□③ |①---|
□□□□ |--②-|
①②□① |③---|
□①①□

□④④□ |④---|
④□□④ |----|
□□□□ |----|
□□□□

32
□□□□ |①---|
②□□② |----|
□①①□ |②---|
①□□①

③④□③ |③---|
□③③□ |④---|
□□⑤□ |⑤---|
□□□□

33
□□□□ |①---|
□□②□ |--②-|
①③□① |③---|
□①①□

□④④□ |④---|
④⑤□④ |----|
□□⑥□ |⑤-⑥-|
□□□□

34
□□□□ |①---|
□□③□ |--②-|
①□□① |③---|
②①①□

□④④⑤ |④---|
④⑥□④ |----|
□□□□ |⑤-⑥-|
□□□□

35
□□□□ |①---|
□□□□ |----|
②①①② |②---|
①□□①

③④④③ |③---|
⑤③③⑤ |④---|
□□□□ |⑤---|
□□□□

36
□□□□ |①---|
□□□□ |----|
□①①□ |----|
□□□□

□□□② |----|
□□③□ |②---|
□□□□ |③---|
□□□□

37
□①□□ |①---|
□□□□ |----|
□□□□ |----|
□□□□

□□□□ |②---|
□□□□ |----|
□②②□ |----|
□□□□

38
③□□② |①---|
□□□□ |②---|
①□□① |③---|
□①①□

□④④⑦ |④---|
④⑥□④ |--⑤-|
□□□□ |⑥-⑦-|
□□⑤□

39
□□□□ |①---|
□□□□ |----|
②①①② |②---|
①□□①

③□□③ |③---|
□③③□ |----|
□□□□ |----|
□□□□

40
□□□□ |①---|
□②□□ |--②-|
①□③① |③---|
□①①□

□④④□ |④---|
④□⑤④ |----|
□□□□ |⑤---|
□□□□

41
①□□① |①---|
②④□□ |②-③-|
□①①□ |④-⑤-|
□□③⑤

□⑥⑥□ |⑥---|
□□⑨⑦ |⑦-⑧-|
□□□□ |⑨---|
□⑧□□

42
□□□□ |①-②③|
②⑥□□ |④-⑤-|
③□⑦⑤ |⑥-⑦-|
④□①①

□⑩□□ |--⑧-|
□□⑨□ |⑨-⑩-|
□⑧□□ |--⑪-|
□⑪⑪□

43
①⑤②① |①---|
□③④□ |②-③-|
□□□□ |④-⑤-|
□□□□

□□□□ |⑥⑦⑧-|
□□□⑥ |⑨-⑩-|
□⑪⑩⑦ |--⑪-|
□⑨□⑧

44
□①①□ |①---|
②□□□ |②③④-|
③□□⑤ |⑤-⑥-|
④⑥□□

⑧□□□ |⑦---|
□□⑦□ |----|
□⑧□□ |⑧---|
□□□□

45
□□□① |①---|
④⑤□□ |②-③-|
③□①□ |④-⑤-|
②□□□

□⑥□□ |⑥---|
□□□□ |----|
□□□⑦ |⑦---|
□□⑦□

46
□□□① |①---|
□□①□ |----|
□□□□ |----|
□□□□

□□□□ |②---|
□□□□ |----|
□□□□ |----|
②②②②
最終更新:2026年03月30日 21:00