1
□□□□ |①---|
②⑥④① |②---|
□⑤③□ |③-④-|
□□□□ |⑤-⑥-|
2
□□□□ |①---|
②⑥④① |②---|
□⑤③□ |③-④-|
□□□□ |⑤-⑥-|
3
□□□□ |①---|
②⑥④① |②---|
□⑤③□ |③-④-|
□□□□ |⑤-⑥-|
4
⑤□□⑤ |①---|
②□④① |②---|
□□③□ |③-④-|
□□□□ |⑤---|
5
□①①□ |①---|
□②□□ |--②-|
①②②① |----|
□②□□ |③---|
③③③③
③□□③
□□□□
□□□□
6
□□□□ |--①-|
□①□④ |②-③-|
⑤□②⑥ |④-⑤-|
⑦③□□ |⑥-⑦-|
7
②⑥④① |①---|
①①②② |②---|
③③⑤⑤ |③-④-|
□⑤③□ |⑤-⑥-|
8
②⑤④① |①---|
①①②② |②---|
③③⑤⑤ |③-④-|
□⑥③□ |⑤-⑥-|
9
②⑥④① |①---|
①①②② |②---|
③③⑤⑤ |③-④-|
□⑤③□ |⑤-⑥-|
10
□⑤④□ |①---|
①①②② |②---|
③③⑤⑤ |③-④-|
②⑥③① |⑤-⑥-|
11
②⑥④① |①---|
①①②② |②---|
③③⑤⑤ |③-④-|
□⑤③□ |⑤-⑥-|
12
②⑤④① |①---|
①①②② |②---|
③③⑤⑤ |③-④-|
□⑥③□ |⑤-⑥-|
13
②⑥④① |①---|
①①②② |②---|
③③⑤⑤ |③-④-|
□⑤③□ |⑤-⑥-|
14
□④⑤□ |①---|
①①②② |②---|
⑤③④⑥ |③-④-|
②⑥③① |⑤-⑥-|
15
③□④□ |--①-|
□⑤□② |②-③-|
□□⑥□ |④-⑤-|
①⑦□□ |⑥-⑦-|
16
□⑥⑥□ |①---|
②⑤□□ |②-③-|
□④□① |④-⑤-|
□□③① |⑥---|
17
□④□③ |--①-|
②□⑤□ |②-③-|
□⑥□□ |④-⑤-|
□□⑦① |⑥-⑦-|
18
□③②□ |①--②|
□⑥⑦□ |③-④-|
①⑤⑧④ |⑤-⑥-|
①□□□ |⑦-⑧-|
19
④③②□ |----|
□□□□ |①---|
①□□① |②③④-|
□□□⑤ |--⑤-|
20
□③②⑥ |①--②|
⑤□□□ |③-④-|
①□④□ |⑤-⑥-|
①⑦⑦□ |⑦---|
21
③□④□ |--①-|
□⑤□② |②-③-|
□□⑥□ |④-⑤-|
①⑦□□ |⑥-⑦-|
22
□②③□ |①--②|
□□□⑤ |③-④-|
⑥④□① |⑤-⑥-|
□□□① |⑦-⑧-|
□□□□
□□□□
□□□⑦
⑧□□□
23
②⑥④① |①---|
①①②② |②---|
③③⑤⑤ |③-④-|
□⑤③□ |⑤-⑥-|
24
②⑤④① |①---|
①①②② |②---|
③③⑤⑤ |③-④-|
□⑥③□ |⑤-⑥-|
25
②⑥④① |①---|
①①②② |②---|
③③⑤⑤ |③-④-|
□⑤③□ |⑤-⑥-|
26
□④⑤□ |①---|
①①②② |②---|
⑤③④⑥ |③-④-|
②⑥③① |⑤-⑥-|
27
②□③② |--①-|
□④□□ |②---|
□□⑤□ |③-④-|
①⑥□□ |⑤-⑥-|
28
⑤②③⑤ |①--②|
□⑥⑥□ |③-④-|
④⑥⑥① |⑤---|
□□□① |⑥---|
29
□④□③ |--①-|
②□⑤□ |②-③-|
□⑥□□ |④-⑤-|
□□⑦① |⑥-⑦-|
30
□□□② |①---|
□⑥⑤□ |②-③-|
①⑦④□ |④-⑤-|
①③□□ |⑥-⑦-|
31
□②③④ |----|
□□□□ |①---|
①□□① |②③④-|
⑤□□□ |--⑤-|
32
⑥②③□ |①--②|
□□□⑤ |③-④-|
□④□① |⑤-⑥-|
□⑦⑦① |⑦---|
33
□④□③ |--①-|
②□⑤□ |②-③-|
□⑥□□ |④-⑤-|
□□⑦① |⑥-⑦-|
34
□③②□ |①--②|
⑤□□□ |③-④-|
①□④⑥ |⑤-⑥-|
①□□□ |⑦-⑧-|
□□□□
□□□□
⑦□□□
□□□⑧
35
□④④□ |①---|
③③□□ |②---|
□②②□ |③---|
①①□□ |④---|
36
□□□□ |①---|
□□①① |②---|
□②②□ |③---|
□□③③ |----|
37
①②②② |①---|
①①②③ |②---|
①①③③ |③---|
④③③⑤ |④-⑤-|
38
⑦③②□ |①--②|
①□□⑥ |③-④-|
①□□④ |⑤-⑥-|
⑤□□⑧ |⑦-⑧-|
39
□③□② |①---|
①③③□ |②---|
①①③③ |③---|
②①①④ |--④-|
40
□⑤④□ |①--②|
①③②⑥ |③--④|
①□□□ |⑤-⑥-|
⑦□□⑧ |⑦-⑧-|
41
①②②② |①---|
①①②③ |②---|
①①③③ |③---|
④③③⑤ |④-⑤-|
42
⑤③②⑥ |①--②|
①⑦□□ |③-④-|
①□□④ |⑤-⑥-|
□□⑧□ |⑦-⑧-|
43
②③□③ |①---|
①③③③ |②---|
①①③□ |③---|
①①□② |--④-|
□□□□
□□□□
□□□□
□④□□
44
□□①③ |①---|
②④□□ |②-③-|
□⑥□⑤ |④-⑤-|
□□□⑦ |⑥-⑦-|
45
①①②② |①---|
①□②□ |②---|
③③④④ |③---|
③□④□ |④---|
46
①①②② |①---|
①③②④ |②---|
□③③⑤ |③---|
□□③③ |④-⑤-|
47
①②③④ |①---|
①②③④ |②---|
①②③④ |③---|
①②③④ |④---|
48
①②③□ |①---|
①②□④ |②---|
①②⑤□ |③-④-|
①②□⑥ |⑤-⑥-|
49
①①②② |①---|
①□②□ |②---|
③③④④ |③---|
③□④□ |④---|
50
①①②② |①---|
①③②④ |②---|
□③③⑤ |③---|
□□③③ |④-⑤-|
51
①②③④ |①---|
①②③④ |②---|
①②③④ |③---|
①②③④ |④---|
52
①③□□ |①---|
①□□□ |--②-|
①□②□ |③-④-|
①□□④ |⑤-⑥-|
□□□⑥
□□□□
□□□□
⑤□□□
53
②②②□ |①---|
①②□□ |--②-|
①①□□ |----|
□①①□ |③---|
□□□□
□□□③
□□③③
□③③□
54
□□⑦□ |--①-|
□⑥③□ |②-③-|
□②⑤□ |④-⑤-|
□④□① |⑥-⑦-|
55
□□□□ |①---|
□□②② |--②-|
①①□□ |----|
□③③□ |③---|
56
③□□④ |--①-|
□⑤②□ |②-③-|
①□□⑥ |④-⑤-|
□⑦□□ |⑥-⑦-|
57
□②②② |①---|
①□②□ |--②-|
①①①□ |----|
①□①□ |③---|
□□□□
□③□③
□③③③
□□③□
58
□□⑦③ |--①-|
⑥□□□ |②-③-|
②□⑤□ |④-⑤-|
④□□① |⑥-⑦-|
59
□①□□ |①---|
□①□② |--②-|
□①②② |----|
□①□② |③---|
□□□□
③□③□
③③□□
③□③□
60
□□①□ |--①-|
④②□□ |②-③-|
⑥□③⑤ |④-⑤-|
□□□⑦ |⑥-⑦-|
61
①④⑥② |①---|
②②①① |②---|
⑤⑤③③ |③-④-|
□③⑤□ |⑤-⑥-|
62
①④⑤② |①---|
②②①① |②---|
⑤⑤③③ |③-④-|
□③⑥□ |⑤-⑥-|
63
①④⑥② |①---|
②②①① |②---|
⑤⑤③③ |③-④-|
□③⑤□ |⑤-⑥-|
64
□④⑤□ |①---|
②②①① |②---|
⑤⑤③③ |③-④-|
①③⑥② |⑤-⑥-|
65
①④⑥② |①---|
②②①① |②---|
⑤⑤③③ |③-④-|
□③⑤□ |⑤-⑥-|
66
①④⑤② |①---|
②②①① |②---|
⑤⑤③③ |③-④-|
□③⑥□ |⑤-⑥-|
67
①④⑥② |①---|
②②①① |②---|
⑤⑤③③ |③-④-|
□③⑤□ |⑤-⑥-|
68
□⑤④□ |①---|
②②①① |②---|
⑥④③⑤ |③-④-|
①③⑥② |⑤-⑥-|
69
②□□② |①---|
①①①① |--②-|
□②②□ |----|
□□□□ |③---|
□③③□
③□□③
□□□□
□□□□
70
□□□□ |--①-|
□①⑤④ |②-③-|
⑦⑥②⑧ |④⑤⑥⑦|
⑨③□□ |⑧-⑨-|
71
②②□□ |①---|
③③③③ |②---|
③□□③ |③---|
□□①① |----|
最終更新:2026年03月30日 21:01