1
□>―① |①---|
□□□□ |②---|
□□□□ |③---|
□□□□ |④---|
□□□②
②―<□
□□□□
□□□□
□□□□
③□□□
□>―③
□□□□
□□□□
□□□□
□□□④
④―<□
2
―①□ |①---|
□□□□ |②---|
□□□□ |③-④-|
①□□□ |⑤---|
□□②□
□②―<
□□□□
□□□□
□□□□
□③□□
―③□
□□④□
□□□□
□□□□
□□⑤□
□⑤□□
3
①―<□ |①---|
□□□□ |②---|
□□□□ |③---|
□□□□ |④---|
②□□□
□>―②
□□□□
□□□□
□□□□
□□□③
③―<□
□□□□
□□□□
□□□□
④□□□
□>―④
4
□①―< |①-②-|
□②□□ |③---|
□□□□ |----|
□□□① |----|
□③□□
□□③□
□□□□
□□□□
5
□>―① |①---|
□□□□ |②-③-|
□□①□ |④-⑤-|
□□□□ |⑥-⑦-|
□□□②
②―<□
②□□□
□□□③
□⑤□□
④□□□
□>―④
□□□□
□□□□
□□□⑦
□□□⑥
⑥―<□
6
―①① |①---|
□□□□ |②---|
□□□□ |③-④-|
①□□□ |⑤-⑥-|
②□②□
□②―<
□□□□
□□□□
□□□□
□③□□
―③□
□□④□
□□□□
□□□□
□□⑤□
□⑤□⑥
7
①―<□ |①---|
□□□□ |②-③-|
□①□□ |④-⑤-|
□□□□ |⑥-⑦-|
②□□□
□>―②
□□□②
③□□□
□□⑤□
□□□④
④―<□
□□□□
□□□□
⑦□□□
⑥□□□
□>―⑥
8
①①―< |①---|
□□□□ |②---|
□□□□ |③-④-|
□□□① |⑤-⑥-|
□②□②
―②□
□□□□
□□□□
□□□□
□□③□
□③―<
□□④□
□□⑥□
□□□⑤
□⑤□□
□□□□
9
□>―① |①---|
□□□□ |②-③-|
□□①□ |④-⑤-|
□□□□ |⑥-⑦-|
□□□②
②―<□
②□□□
□□□③
□⑤□□
④□□□
□>―④
□□□□
□□□□
□□□⑦
□□□⑥
⑥―<□
10
―①① |①---|
□□□□ |②---|
□□□□ |③-④-|
①□□□ |⑤-⑥-|
②□②□
□②―<
□□□□
□□□□
□□□□
□③□□
―③□
□□④□
□□□□
□□□□
□□⑤□
□⑤□⑥
11
①―<□ |①---|
□□□□ |②-③-|
□①□□ |④-⑤-|
□□□□ |⑥-⑦-|
②□□□
□>―②
□□□②
③□□□
□□⑤□
□□□④
④―<□
□□□□
□□□□
⑦□□□
⑥□□□
□>―⑥
12
①①―< |①---|
□□□□ |②---|
□□□□ |③-④-|
□□□① |⑤---|
□②□②
―②□
□□□□
□□□□
□□□□
□□③□
□③―<
□④□□
□□□□
□□□□
□⑤□□
□□⑤□
13
□②④③ |①--②|
①□□① |----|
□□④③ |③--④|
□⑤□□ |--⑤-|
14
①②□□ |①--②|
□④④□ |----|
①②□□ |③-④-|
③□□⑤ |⑤---|
15
□②④③ |①--②|
①□□① |----|
□□④③ |③--④|
□⑤□□ |--⑤-|
16
①②□□ |①--②|
④④④④ |----|
①②□□ |③-④-|
③□□□ |----|
17
□③□□ |①---|
②□⑥□ |--②③|
□□④⑤ |④---|
□①①□ |--⑤⑥|
18
□③④□ |①-②③|
②□⑥□ |④---|
□⑤□□ |----|
□①□□ |--⑤⑥|
19
□□□□ |①-②-|
□□□□ |----|
□□②□ |----|
□□②① |--③④|
□□□□
□④□□
□□③□
□□□□
20
□□□□ |①-②-|
□□□□ |----|
□②□□ |----|
①②□□ |----|
21
□□③□ |①---|
□⑥□② |--②③|
⑤④□□ |④---|
□①①□ |--⑤⑥|
22
□④③□ |①-②③|
□□⑥② |④---|
□⑤□□ |----|
□□①□ |--⑤⑥|
23
①②□□ |①-②-|
□②□□ |----|
□□③□ |----|
□□□□ |--③④|
□□□□
□④□□
□□□□
□□□□
24
□⑨②① |①-②-|
□⑦⑧② |----|
□⑤⑥□ |③④⑤⑥|
□③④□ |⑦⑧⑨-|
25
――① |①---|
――① |②---|
□□□□ |③--④|
□□□□ |--⑤-|
②□⑤②
□④□②
③□□□
□③□□
26
□□□□ |①--②|
④□②□ |--③-|
□③□① |--④-|
□□①□ |⑤-⑥-|
□□□□
□□□□
□□□⑥
□⑤□□
27
⑥⑦⑧⑨ |①②③④|
□④③⑤ |⑤⑥⑦⑧|
⑪②①⑫ |⑨-⑩-|
□⑩□□ |⑪-⑫-|
28
⑨⑧⑦⑥ |①②③④|
⑤③④□ |⑤⑥⑦⑧|
□①②□ |⑨-⑩-|
□□⑩□ |⑪-⑫-|
□□□□
□□□⑫
□⑪□□
□□□□
29
□□□□ |①---|
①―<□ |②---|
①―<□ |③--④|
□□□□ |--⑤-|
□⑤□②
②□④□
②□□③
□□③□
30
④□③④ |①--②|
□②□⑤ |--③-|
①□□□ |--④-|
□①□□ |⑤-⑥-|
□□□□
□□□□
―⑥□
□□□□
31
□⑤④③ |①-②-|
⑦□□⑦ |--③④|
⑥□②⑥ |⑤--⑥|
□①□□ |--⑦-|
32
⑤⑧□③ |①-②-|
□③□⑦ |③-④-|
⑦④□⑤ |⑤-⑥-|
⑥①②□ |⑦-⑧-|
33
⑤⑨③① |①②③-|
①④②⑦ |④-⑤-|
⑧⑥⑧□ |⑥-⑦-|
□□⑥④ |⑧-⑨-|
34
□□③① |①②③-|
①④②□ |④---|
□□∨∨ |⑤---|
□□④④ |⑥---|
□□□□
□□□□
⑥⑤□□
□□⑤⑤
35
⑤⑨③① |①②③-|
①④②⑦ |④-⑤-|
⑧⑥⑧□ |⑥-⑦-|
□□⑥④ |⑧-⑨-|
36
□□③① |①②③-|
①④②□ |④---|
□□∨∨ |⑤-⑥-|
□□④④ |⑦-⑧-|
□⑧□□
□□□□
⑦⑤□⑦
⑥□⑤⑤
37
□□⑤⑦ |①②③-|
①④③① |④-⑤-|
□⑥②□ |⑥-⑦-|
□□⑥④ |⑧-⑨-|
□□□□
□□□⑨
⑧□⑧□
□□□□
38
□>―④ |①-②-|
①③②□ |③-④-|
□□□③ |⑤-⑥-|
□□□① |⑦-⑧-|
―⑧⑥
□□□⑦
⑦⑤⑥□
□□□□
39
□□②□ |①-②-|
①③□□ |③-④-|
□>―② |⑤-⑥-|
□□□□ |⑦⑧⑨⑩|
⑦□⑧⑥
□□□□
□⑤□④
□⑨□⑩
40
□□□□ |①---|
①――< |----|
①――< |②-③④|
□□□□ |⑤⑥⑦⑧|
□⑤④③
②⑧⑦⑥
②□□□
□□□□
41
□□□∨ |①---|
□□□| |----|
□□□| |----|
□□□① |②---|
□□□□
□□□□
□□□□
□□□②
42
□□□□ |①---|
□∨□□ |----|
①+<□ |②--③|
□①□□ |--④-|
□□□□
□□④④
②□③③
□②②②
43
□□□□ |①---|
①<□□ |--②-|
□□□□ |③---|
①<□② |④⑤⑥-|
⑥③③□
③⑤□□
□□④□
③□□□
44
□□□□ |①---|
□□∨□ |----|
□>+① |②-③④|
□□①□ |⑤⑥⑦-|
□③④□
□⑤⑥□
□⑦□②
②②②□
45
②⑩⑦① |①②③④|
⑯⑮⑭⑬ |⑤⑥⑦⑧|
⑧⑫③⑤ |⑨⑩⑪⑫|
⑥④⑨⑪ |⑬⑭⑮⑯|
46
②⑧③⑤ |①②③④|
⑫⑩□⑨ |⑤⑥⑦⑧|
④□①⑬ |⑨⑩⑪⑫|
⑥□⑦⑪ |⑬⑭⑮⑯|
□□□□
□□□□
⑯⑮⑭□
□□□□
47
②□□① |①②③④|
⑧⑥③⑦ |⑤⑥⑦⑧|
⑫□⑪⑨ |⑨⑩⑪⑫|
④⑩⑤□ |⑬⑭⑮⑯|
⑯⑮⑭⑬
□□□□
□□□□
□□□□
48
□②②□ |①---|
□□⑤④ |----|
□⑥□□ |-②-③|
⑦③①① |④⑤⑥⑦|
49
□>―① |①---|
□□□□ |②-③-|
□□①□ |④-⑤-|
□□□□ |⑥-⑦-|
□□□②
②―<□
②□□□
□□□③
□⑤□□
④□□□
□>―④
□□□□
□□□□
□□□⑦
□□□⑥
⑥―<□
50
―①① |①---|
□□□□ |②---|
□□□□ |③-④-|
①□□□ |⑤-⑥-|
②□②□
□②―<
□□□□
□□□□
□□□□
□③□□
―③□
□□④□
□□□□
□□□□
□□⑤□
□⑤□⑥
51
①―<□ |①---|
□□□□ |②-③-|
□①□□ |④-⑤-|
□□□□ |⑥-⑦-|
②□□□
□>―②
□□□②
③□□□
□□⑤□
□□□④
④―<□
□□□□
□□□□
⑦□□□
⑥□□□
□>―⑥
52
①①―< |①---|
□□□□ |②---|
□□□□ |③-④-|
□□□① |⑤-⑥-|
□②□②
―②□
□□□□
□□□□
□□□□
□□③□
□③―<
□□④□
□□⑥□
□□□⑤
□⑤□□
□□□□
53
□>―① |①---|
□□□□ |②-③-|
□□①□ |④-⑤-|
□□□□ |⑥-⑦-|
□□□②
②―<□
②□□□
□□□③
□⑤□□
④□□□
□>―④
□□□□
□□□□
□□□⑦
□□□⑥
⑥―<□
54
―①① |①---|
□□□□ |②---|
□□□□ |③-④-|
①□□□ |⑤-⑥-|
②□②□
□②―<
□□□□
□□□□
□□□□
□③□□
―③□
□□④□
□□□□
□□□□
□□⑤□
□⑤□⑥
55
①―<□ |①---|
□□□□ |②-③-|
□①□□ |④-⑤-|
□□□□ |⑥-⑦-|
②□□□
□>―②
□□□②
③□□□
□□⑤□
□□□④
④―<□
□□□□
□□□□
⑦□□□
⑥□□□
□>―⑥
56
①①―< |①-②-|
□②□□ |③---|
□□□□ |④---|
□□□① |⑤---|
□③□□
□□③□
□∨∨□
□④④□
□□□□
□□□□
□□□□
□⑤⑤□
57
――① |①---|
――① |②---|
□□□□ |③--④|
□□□□ |--⑤-|
②□⑤②
□④□②
③□□□
□③□□
58
□□□□ |①--②|
④□②□ |--③-|
□③□① |--④-|
□⑤①□ |⑤-⑥-|
□□□□
□□□□
□□□⑥
□□□□
59
⑥⑦⑧⑨ |①②③④|
□④③⑤ |⑤⑥⑦⑧|
⑪②①⑫ |⑨-⑩-|
□⑩□□ |⑪-⑫-|
60
⑨⑧⑦⑥ |①②③④|
⑤③④□ |⑤⑥⑦⑧|
□①②□ |⑨-⑩-|
□□⑩□ |⑪-⑫-|
□□□□
□□□⑫
□⑪□□
□□□□
61
□□□□ |①---|
①―<□ |②---|
①―<□ |③--④|
□□□□ |--⑤-|
□⑤□②
②□④□
②□□③
□□③□
62
④□③④ |①--②|
□②□⑤ |--③-|
①□□□ |--④-|
□①□□ |⑤-⑥-|
□□□□
□□□□
―⑥□
□□□□
63
□⑤④③ |①-②-|
⑦□□⑦ |--③④|
⑥□②⑥ |⑤--⑥|
□①□□ |--⑦-|
64
⑤⑧□③ |①-②-|
□③□⑦ |③-④-|
⑦④□⑤ |⑤-⑥-|
⑥①②□ |⑦-⑧-|
65
⑤⑨③① |①②③-|
④□②⑦ |④-⑤-|
⑨⑤⑧□ |⑥-⑦-|
⑦①⑥④ |⑧-⑨-|
66
④□③① |①②③-|
□□②□ |④---|
□□∨∨ |⑤-⑥-|
□①④④ |⑦-⑧-|
□⑦□□
□□□□
⑧⑥□□
⑤□⑤⑤
67
⑤⑨③① |①②③-|
④□②⑦ |④-⑤-|
⑨⑤⑧□ |⑥-⑦-|
⑦①⑥④ |⑧-⑨-|
68
④□③① |①②③-|
□□②□ |④---|
□□∨∨ |⑤-⑥-|
□①④④ |⑦-⑧-|
□⑧□□
□□□□
□□□⑦
⑥□⑤⑤
69
□□⑤⑦ |①②③-|
①□③① |④-⑤-|
①□②□ |⑥-⑦-|
□□⑥④ |⑧-⑨-|
□□□□
□□□⑨
□□⑧□
⑨□□□
70
□>―④ |①-②-|
①①②□ |③-④-|
□□□③ |--⑤-|
□□□① |⑥-⑦-|
―⑦⑤
□□□⑥
□□⑤□
□⑦□□
71
□□②□ |①-②-|
①①□□ |--③-|
□>―② |④-⑤-|
□□□□ |⑥⑦⑧⑨|
⑥□⑦⑤
□□□□
④④□③
③⑧□⑨
72
□⑥□⑤ |①---|
①①③⑦ |②-③④|
□④□□ |⑤⑥⑦⑧|
②□□□ |⑨⑩⑪⑫|
□□□□
□⑧□□
⑩□⑨□
⑫□⑪□
73
□□□□ |①---|
□□□□ |----|
□□□□ |----|
□□□① |----|
最終更新:2026年03月30日 21:01