アットウィキロゴ
1
③□①① |①-②-|
□④□⑥ |③④⑤⑥|
□□⑤□ |⑦⑧⑨⑩|
□②②□ |⑪-⑫-|

□⑪⑫□
⑩□⑧□
□⑨□⑦
⑫□□□
2
①□⑦② |--①-|
④⑥③⑤ |②-③-|
□④⑤⑦ |④-⑤-|
⑥②①③ |⑥-⑦-|
3
①①□③ |①-②-|
⑥□④□ |③④⑤⑥|
□⑤□□ |⑦⑧⑨⑩|
□②②□ |⑪-⑫-|

□□⑪□
□⑧□⑩
⑦□⑨□
⑫□□⑫
4
①④③① |--①-|
⑤□□□ |②---|
□□□□ |--③④|
□②②⑥ |⑤-⑥-|
5
②□□① |①-②③|
□③□⑤ |④⑤⑥⑦|
□□④□ |⑧⑨⑩-|
①□□□ |⑪-⑫-|

□⑩⑫⑫
⑨□⑦□
□⑧□⑥
□⑪⑪□
6
⑩⑥⑨⑩ |--①②|
□⑧③□ |③-④⑤|
②⑦□⑤ |⑥-⑦⑧|
①□□④ |⑨-⑩-|
7
⑩⑨□⑩ |--①②|
③□⑥⑧ |③-④⑤|
□⑤②⑦ |⑥-⑦⑧|
□④①□ |⑨-⑩-|
8
□□□□ |--①-|
①②③④ |-②--|
①②③④ |③--④|
①②③④ |--⑤-|

⑤⑤⑤⑤
□□□□
□□□□
∧∧∧∧
9
1111 |----|
□□□□ |----|
□□□□ |----|
□□□□ |①---|
10
⑤□□④ |----|
①⑥⑥□ |①-②-|
□③□② |③-④-|
□□□□ |⑤-⑥-|
11
□⑤□⑥ |--①-|
②□④② |②---|
□③□□ |--③④|
①□⑥① |⑤-⑥-|
12
④⑧③□ |--①②|
□②⑤□ |③-④-|
□⑥①□ |--⑤⑥|
⑧④⑦□ |⑦-⑧-|
13
⑤□④□ |--①②|
□①□□ |③-④-|
□□②□ |--⑤-|
□③⑥④ |⑥---|
14
□□□□ |----|
④□⑤□ |①-②-|
□□□① |③-④-|
②⑥⑥③ |⑤-⑥-|
15
②⑥□② |--①-|
□□③□ |②---|
①④□① |--③④|
⑥□⑤□ |⑤-⑥-|
16
③□□⑥ |--①-|
□④□② |②-③-|
①⑦⑤□ |④-⑤-|
□③⑥□ |⑥-⑦-|
17
⑧⑥②□ |①-②-|
③⑦①□ |③-④-|
□□⑤④ |⑤-⑥-|
⑧⑥□② |⑦-⑧-|
18
⑤□□④ |----|
①⑥⑥□ |①-②-|
□③□② |③-④-|
□□□□ |⑤-⑥-|
19
□⑤□⑥ |--①-|
②□④② |②---|
□③□□ |--③④|
①□⑥① |⑤-⑥-|
20
④⑧③□ |--①②|
□②⑤□ |③-④-|
□⑥①□ |--⑤⑥|
⑧④⑦□ |⑦-⑧-|
21
⑤□④□ |--①②|
□①□□ |③-④-|
□□②□ |--⑤-|
□③⑥④ |⑥---|
22
□□□□ |----|
④□⑤□ |①-②-|
□□□① |③-④-|
②⑥⑥③ |⑤-⑥-|
23
②⑥□② |--①-|
□□③□ |②---|
①④□① |--③④|
⑥□⑤□ |⑤-⑥-|
24
□□□□ |--①②|
□①□□ |③-④-|
□□②④ |⑤⑥⑦-|
□③□④ |⑧-⑨⑩|

□□⑨□
⑧⑩⑤□
⑧⑥□□
□□⑦□
25
□③□⑪ |①-②-|
⑩□④⑧ |③④⑤-|
⑦⑤①⑨ |⑥⑦⑧-|
②②□⑥ |⑨⑩⑪-|
26
□□□□ |①--②|
□□□□ |--③-|
□②□□ |----|
□①①□ |④--⑤|

□□③□
□③□□
⑤□□□
④□∧□
27
□□1② |--①-|
①③③□ |--②-|
□□□④ |③-④-|
□⑤⑤⑥ |⑤-⑥-|
28
□>③□ |①--②|
③□□□ |--③-|
②>①□ |----|
①□□□ |④--⑤|

□□□□
□□□□
□⑤>④
□④□□

□□4□
□□□□
□□3□
□□□□
29
□□>① |--①-|
□①□□ |----|
□□□□ |②---|
□□□□ |③---|

□②□□
③□□②
②□③□
□③□□

□□□2
□□□□
□□□1
□□□□
30
□□□□ |①--②|
□②□□ |--③-|
□①□□ |----|
□□①□ |④--⑤|

□③③□
⑤□□□
④□□□
□□∧□
31
①③1□ |--①-|
③□□□ |----|
□②③□ |②---|
②□□② |③---|
32
①□□① |①---|
□③②□ |②---|
①③□③ |③---|
④②④□ |④---|
33
□①□① |①---②-|
①④□⑤ |③-④-⑤-|
②□③□ |⑥-⑦-⑧-|
□□□□ |⑨-⑩-⑪-|

⑥□□⑪
⑩□⑨□
□⑧□□
□□□⑦
34
□∨□□ |①---|
□□□□ |--②-|
□□□□ |----|
□①①□ |----|

□□②□
□□□□
□□□□
□□∧□
35
③□1② |①---|
□⑤③□ |--②-|
□□□④ |③-④-|
□1⑤⑥ |⑤-⑥-|
36
□□□□ |①---|
□□□□ |--②-|
□>①□ |----|
①□□□ |③---|

②>②□
□□□□
□□>③
∧□□□

□□3□
□□□□
□□2□
□□□□
37
2□>① |--①-|
□□□□ |②---|
□□□1 |③---|
□□□□ |④---|

□④④3
□□□□
□③③□
□□□□
38
□□□□ |①---|
①□③① |②-③-|
□③□< |--④-|
∧□③① |⑤---|

□⑤⑤□
□□□□
□∧□⑤
□□□□

□□□□
2□□□
□4□□
□□□□
39
④□□⑥ |①-②-|
□□⑤② |--③-|
②□<□ |④-⑤-|
□□⑥② |⑥---|

□1□□
□□□□
3□□□
□□□□
40
□①⑤□ |①-②③|
⑨②⑥⑩ |④-⑤-|
□⑦③□ |⑥⑦⑧-|
①④⑧⑤ |⑨-⑩-|
41
④□②① |--①-|
④③②□ |-②--|
④③□① |③--④|
□③⑥⑤ |--⑤⑥|
42
□□□⑤ |①②③④|
□⑥④③ |⑤---⑥-|
□⑦②① |--⑦---|
□□□□
43
□□□□ |①---|
□□⑤④ |②-③-④-|
□□③⑥ |----|
①<⑦② |⑤-⑥-⑦-|
44
□□□□ |①---|
□□□□ |----|
①<□□ |----|
1□□□ |----|
45
□□□□ |①---|
①<⑤④ |②-③-④-|
1□③⑥ |----|
□□⑦② |⑤-⑥-⑦-|
46
□□□□ |①---|
1□□□ |--②-|
①<□□ |③-④-|
□□□□ |⑤-⑥-|

□□□②
□④⑤□
5⑤③□
□□□⑥
47
□□□□ |①---|
□□□□ |----|
□□□③ |----|
①<②□ |②-③-|
48
□□②⑤ |①-②-|
□□□□ |----|
①<④□ |③-④-|
1□□③ |--⑤-|
49
□□④□ |①-②-|
①<□□ |③---|
1□□③ |④---|
□□②□ |⑤-⑥-|

□□□□
5⑤⑥□
□□□□
□□□□
50
□□□□ |①---|
□□□□ |----|
①<□□ |②---|
□□□□ |----|

□□□□
□□□□
2□□□
□□□□
51
□□□□ |①---|
□□⑥④ |②-③-④-|
⑤□③⑦ |⑤---|
①□⑧② |⑥-⑦-⑧-|
52
□②□□ |①---|
①□□□ |--②-|
③□□□ |--③-|
□④□□ |--④-|
53
□⑧④□ |①---|
□③⑦□ |②③④-|
⑤□②□ |⑤-⑥-|
①□□⑥ |⑦-⑧-|
54
⑤□□③ |①-②-|
①⑦⑦□ |③-④-|
□②□⑥ |⑤-⑥-|
□□④□ |⑦---|
55
□□□□ |①-②-|
②□□② |③---|
④□⑥□ |④---|
①③③⑤ |⑤-⑥-|
56
□□⑤② |①-②-|
①□□□ |----|
□□□④ |③-④-|
□□③□ |--⑤-|
57
④□□④ |①-②-|
□□□□ |③---|
①□③□ |④---|
□□□② |----|
58
⑥②②⑥ |①-②-|
□⑤□□ |--③④|
⑦□④⑦ |⑤--⑥|
①③□① |--⑦-|
59
□②②④ |--①-|
⑥⑤⑤□ |②---③-|
□□③□ |④---|
①□□□ |⑤---⑥-|
60
□④□□ |①---②-|
□⑥□② |③---|
□□□□ |④-⑤-|
⑤①③⑤ |--⑥-|
61
②□①② |①--②|
□□⑥⑥ |--③-|
③⑤□③ |--④-|
□□④④ |⑤-⑥-|
62
⑤①①⑤ |--①-|
□④□□ |--②③|
⑥□③⑥ |④--⑤|
□②□□ |--⑥-|
63
□②②④ |--①-|
⑥⑤⑤□ |②---③-|
□□③□ |④---|
①□□□ |⑤---⑥-|
64
□□□□ |①---②-|
□⑤□② |③---|
□□□□ |--④-|
④①③④ |--⑤-|
65
□①①□ |①--②|
②□□② |--③-|
□③③□ |--④-|
□□□□ |⑤-⑥-|

□⑥□□
□□④□
□□□□
⑤□□□
66
①□□① |----|
□□□□ |①---|
①□□① |----|
□□□□ |----|
67
①□③③ |----|
⑤□④□ |①---②-|
□□□② |③---|
□□□□ |④---⑤-|
68
□□□□ |①---②-|
□⑤□② |③---|
□④④□ |--④-|
①①③③ |--⑤-|
69
②□①② |①--②|
□□□⑥ |--③-|
③⑤□③ |--④-|
□□□④ |⑤-⑥-|
70
⑤①①⑤ |--①-|
□④□□ |--②③|
⑥□③⑥ |④--⑤|
□②□□ |--⑥-|
71
□②②⑤ |--①-|
⑨⑦⑦□ |②-③④|
□③④⑧ |⑤-⑥-|
①□□⑥ |⑦-⑧⑨|
72
□□□⑥ |①-②③|
□⑨□③ |④-⑤-|
②⑤⑧□ |⑥-⑦-|
⑦①④⑦ |⑧-⑨-|
73
①□①□ |①--②|
②□□□ |--③-|
③⑥□④ |--④-|
□□⑤□ |⑤-⑥-|
74
□□□□ |----|
□□□□ |----|
□□□□ |----|
□□□□ |----|
75
③□①① |①-②-|
□④□⑥ |③④⑤⑥|
□□⑤□ |⑦⑧⑨⑩|
□②②□ |⑪-⑫-|

□⑪⑫□
⑩□⑧□
□⑨□⑦
⑫□□□
76
①□⑦② |--①-|
④⑥③⑤ |②-③-|
□④⑤⑦ |④-⑤-|
⑥②①③ |⑥-⑦-|
77
①①□③ |①-②-|
⑥□④□ |③④⑤⑥|
□⑤□□ |⑦⑧⑨⑩|
□②②□ |⑪-⑫-|

□□⑪□
□⑧□⑩
⑦□⑨□
⑫□□⑫
78
①④③① |--①-|
⑤□□□ |②---|
□□□□ |--③④|
□②②⑥ |⑤-⑥-|
79
②□□① |①-②③|
□③□⑤ |④⑤⑥⑦|
□□④□ |⑧⑨⑩-|
①□□□ |⑪-⑫-|

□⑩⑫⑫
⑨□⑦□
□⑧□⑥
□⑪⑪□
80
⑩⑥⑨⑩ |--①②|
□⑧③□ |③-④⑤|
②⑦□⑤ |⑥-⑦⑧|
①□□④ |⑨-⑩-|
81
⑩⑨□⑩ |--①②|
③□⑥⑧ |③-④⑤|
□⑤②⑦ |⑥-⑦⑧|
□④①□ |⑨-⑩-|
82
□□□□ |--①②|
□①□□ |③---|
□□②□ |----|
□③□□ |----|
83
①①③□ |①-②-|
⑥④□□ |③④⑤⑥|
⑤□□□ |⑦⑧⑨⑩|
②②□□ |⑪-⑫-|

⑫□□⑪
□□⑩□
□⑦□⑨
□□⑧⑫
84
⑦⑤⑥□ |--①-|
⑤⑦④② |②-③-|
②④①⑥ |④-⑤-|
③①③□ |⑥-⑦-|
85
⑪⑫□⑫ |--①②|
□⑩⑨① |③④⑤⑥|
④⑥②⑧ |⑦⑧⑨⑩|
⑤③⑦□ |⑪-⑫-|
86
□⑤⑥⑥ |--①-|
①□④③ |②-③-|
⑤②③□ |--④-|
②①□④ |⑤-⑥-|
87
①⑨⑪⑪ |--①②|
⑧②⑥④ |③④⑤⑥|
□⑦③⑤ |⑦⑧⑨-|
□⑩⑩□ |⑩-⑪-|
88
⑩⑥⑨⑩ |--①②|
□⑧③□ |③-④⑤|
②⑦□⑤ |⑥-⑦⑧|
①□□④ |⑨-⑩-|
89
□⑨□□ |--①②|
③□⑥⑧ |③-④⑤|
□⑤②⑦ |⑥-⑦⑧|
□④①□ |⑨-⑩-|

⑩□□⑩
□□□□
□□□□
∧□□∧
90
□□□□ |----|
□□□□ |----|
□□□□ |----|
□□□□ |----|
91
□□□□ |----|
□□□□ |----|
□□□□ |----|
□□□□ |----|
92
□□□□ |----|
□□□□ |----|
□□□□ |----|
□□□□ |----|
93
□□□□ |----|
□□□□ |----|
□□□□ |----|
□□□□ |----|
94
1□□1 |①---|
□□□□ |----|
□□□□ |----|
□□□□ |----|
最終更新:2026年03月30日 21:02